  0
SECTION
  2
HEADER
  9
$ACADVER
  1
AC1015
  9
$ACADMAINTVER
 70
    18
  9
$DWGCODEPAGE
  3
ANSI_1252
  9
$INSBASE
 10
0.0
 20
0.0
 30
0.0
  9
$EXTMIN
 10
0.0
 20
0.0
 30
0.0
  9
$EXTMAX
 10
297.0
 20
210.0
 30
0.0
  9
$LIMMIN
 10
0.0
 20
0.0
  9
$LIMMAX
 10
297.0
 20
210.0
  9
$ORTHOMODE
 70
     0
  9
$REGENMODE
 70
     1
  9
$FILLMODE
 70
     1
  9
$QTEXTMODE
 70
     0
  9
$MIRRTEXT
 70
     0
  9
$LTSCALE
 40
1.0
  9
$ATTMODE
 70
     1
  9
$TEXTSIZE
 40
0.2
  9
$TRACEWID
 40
0.05
  9
$TEXTSTYLE
  7
Standard
  9
$CLAYER
  8
0
  9
$CELTYPE
  6
ByLayer
  9
$CECOLOR
 62
   256
  9
$CELTSCALE
 40
1.0
  9
$DISPSILH
 70
     0
  9
$DIMSCALE
 40
1.0
  9
$DIMASZ
 40
1.799999999999999
  9
$DIMEXO
 40
0.0625
  9
$DIMDLI
 40
0.38
  9
$DIMRND
 40
0.0
  9
$DIMDLE
 40
0.0
  9
$DIMEXE
 40
0.18
  9
$DIMTP
 40
0.0
  9
$DIMTM
 40
0.0
  9
$DIMTXT
 40
0.3499999940395355
  9
$DIMCEN
 40
0.09
  9
$DIMTSZ
 40
0.0
  9
$DIMTOL
 70
     0
  9
$DIMLIM
 70
     0
  9
$DIMTIH
 70
     1
  9
$DIMTOH
 70
     1
  9
$DIMSE1
 70
     0
  9
$DIMSE2
 70
     0
  9
$DIMTAD
 70
     0
  9
$DIMZIN
 70
     0
  9
$DIMBLK
  1

  9
$DIMASO
 70
     1
  9
$DIMSHO
 70
     1
  9
$DIMPOST
  1

  9
$DIMAPOST
  1

  9
$DIMALT
 70
     0
  9
$DIMALTD
 70
     2
  9
$DIMALTF
 40
25.4
  9
$DIMLFAC
 40
1.0
  9
$DIMTOFL
 70
     0
  9
$DIMTVP
 40
0.0
  9
$DIMTIX
 70
     0
  9
$DIMSOXD
 70
     0
  9
$DIMSAH
 70
     0
  9
$DIMBLK1
  1

  9
$DIMBLK2
  1

  9
$DIMSTYLE
  2
Standard
  9
$DIMCLRD
 70
     0
  9
$DIMCLRE
 70
     0
  9
$DIMCLRT
 70
     0
  9
$DIMTFAC
 40
1.0
  9
$DIMGAP
 40
0.09
  9
$DIMJUST
 70
     0
  9
$DIMSD1
 70
     0
  9
$DIMSD2
 70
     0
  9
$DIMTOLJ
 70
     1
  9
$DIMTZIN
 70
     0
  9
$DIMALTZ
 70
     0
  9
$DIMALTTZ
 70
     0
  9
$DIMUPT
 70
     0
  9
$DIMDEC
 70
     4
  9
$DIMTDEC
 70
     4
  9
$DIMALTU
 70
     2
  9
$DIMALTTD
 70
     2
  9
$DIMTXSTY
  7
Standard
  9
$DIMAUNIT
 70
     0
  9
$DIMADEC
 70
     0
  9
$DIMALTRND
 40
0.0
  9
$DIMAZIN
 70
     0
  9
$DIMDSEP
 70
    46
  9
$DIMATFIT
 70
     3
  9
$DIMFRAC
 70
     0
  9
$DIMLDRBLK
  1

  9
$DIMLUNIT
 70
     2
  9
$DIMLWD
 70
    -2
  9
$DIMLWE
 70
    -2
  9
$DIMTMOVE
 70
     0
  9
$LUNITS
 70
     2
  9
$LUPREC
 70
     4
  9
$SKETCHINC
 40
0.1
  9
$FILLETRAD
 40
0.0
  9
$AUNITS
 70
     0
  9
$AUPREC
 70
     0
  9
$MENU
  1
.
  9
$ELEVATION
 40
0.0
  9
$PELEVATION
 40
0.0
  9
$THICKNESS
 40
0.0
  9
$LIMCHECK
 70
     0
  9
$CHAMFERA
 40
0.0
  9
$CHAMFERB
 40
0.0
  9
$CHAMFERC
 40
0.0
  9
$CHAMFERD
 40
0.0
  9
$SKPOLY
 70
     0
  9
$TDCREATE
 40
2454111.655891667
  9
$TDUCREATE
 40
2454111.614225000
  9
$TDUPDATE
 40
2454111.655891667
  9
$TDUUPDATE
 40
2454111.614225000
  9
$TDINDWG
 40
0.0000900694
  9
$TDUSRTIMER
 40
0.0000900694
  9
$USRTIMER
 70
     1
  9
$ANGBASE
 50
0.0
  9
$ANGDIR
 70
     0
  9
$PDMODE
 70
     0
  9
$PDSIZE
 40
0.0
  9
$PLINEWID
 40
0.0
  9
$SPLFRAME
 70
     0
  9
$SPLINETYPE
 70
     6
  9
$SPLINESEGS
 70
     8
  9
$HANDSEED
  5
C0D
  9
$SURFTAB1
 70
     6
  9
$SURFTAB2
 70
     6
  9
$SURFTYPE
 70
     6
  9
$SURFU
 70
     6
  9
$SURFV
 70
     6
  9
$UCSBASE
  2

  9
$UCSNAME
  2

  9
$UCSORG
 10
0.0
 20
0.0
 30
0.0
  9
$UCSXDIR
 10
1.0
 20
0.0
 30
0.0
  9
$UCSYDIR
 10
0.0
 20
1.0
 30
0.0
  9
$UCSORTHOREF
  2

  9
$UCSORTHOVIEW
 70
     0
  9
$UCSORGTOP
 10
0.0
 20
0.0
 30
0.0
  9
$UCSORGBOTTOM
 10
0.0
 20
0.0
 30
0.0
  9
$UCSORGLEFT
 10
0.0
 20
0.0
 30
0.0
  9
$UCSORGRIGHT
 10
0.0
 20
0.0
 30
0.0
  9
$UCSORGFRONT
 10
0.0
 20
0.0
 30
0.0
  9
$UCSORGBACK
 10
0.0
 20
0.0
 30
0.0
  9
$PUCSBASE
  2

  9
$PUCSNAME
  2

  9
$PUCSORG
 10
0.0
 20
0.0
 30
0.0
  9
$PUCSXDIR
 10
1.0
 20
0.0
 30
0.0
  9
$PUCSYDIR
 10
0.0
 20
1.0
 30
0.0
  9
$PUCSORTHOREF
  2

  9
$PUCSORTHOVIEW
 70
     0
  9
$PUCSORGTOP
 10
0.0
 20
0.0
 30
0.0
  9
$PUCSORGBOTTOM
 10
0.0
 20
0.0
 30
0.0
  9
$PUCSORGLEFT
 10
0.0
 20
0.0
 30
0.0
  9
$PUCSORGRIGHT
 10
0.0
 20
0.0
 30
0.0
  9
$PUCSORGFRONT
 10
0.0
 20
0.0
 30
0.0
  9
$PUCSORGBACK
 10
0.0
 20
0.0
 30
0.0
  9
$USERI1
 70
     0
  9
$USERI2
 70
     0
  9
$USERI3
 70
     0
  9
$USERI4
 70
     0
  9
$USERI5
 70
     0
  9
$USERR1
 40
0.0
  9
$USERR2
 40
0.0
  9
$USERR3
 40
0.0
  9
$USERR4
 40
0.0
  9
$USERR5
 40
0.0
  9
$WORLDVIEW
 70
     1
  9
$SHADEDGE
 70
     3
  9
$SHADEDIF
 70
    70
  9
$TILEMODE
 70
     1
  9
$MAXACTVP
 70
    64
  9
$PINSBASE
 10
0.0
 20
0.0
 30
0.0
  9
$PLIMCHECK
 70
     0
  9
$PEXTMIN
 10
0.0
 20
0.0
 30
0.0
  9
$PEXTMAX
 10
297.0
 20
210.0
 30
0.0
  9
$PLIMMIN
 10
0.0
 20
0.0
  9
$PLIMMAX
 10
297.0
 20
210.0
  9
$UNITMODE
 70
     0
  9
$VISRETAIN
 70
     1
  9
$PLINEGEN
 70
     0
  9
$PSLTSCALE
 70
     1
  9
$TREEDEPTH
 70
  3020
  9
$CMLSTYLE
  2
Standard
  9
$CMLJUST
 70
     0
  9
$CMLSCALE
 40
1.0
  9
$PROXYGRAPHICS
 70
     1
  9
$MEASUREMENT
 70
     1
  9
$CELWEIGHT
370
    -1
  9
$ENDCAPS
280
     0
  9
$JOINSTYLE
280
     0
  9
$LWDISPLAY
290
     0
  9
$INSUNITS
 70
     0
  9
$HYPERLINKBASE
  1

  9
$STYLESHEET
  1

  9
$XEDIT
290
     1
  9
$CEPSNTYPE
380
     0
  9
$PSTYLEMODE
290
     1
  9
$FINGERPRINTGUID
  2
{B57DF417-D908-4F0B-9B82-125EBF755AC4}
  9
$VERSIONGUID
  2
{7C27661C-728F-462A-BD0E-98E3E4CC2DD3}
  9
$EXTNAMES
290
     1
  9
$PSVPSCALE
 40
0.0
  9
$OLESTARTUP
290
     0
  0
ENDSEC
  0
SECTION
  2
CLASSES
  0
CLASS
  1
ACDBDICTIONARYWDFLT
  2
AcDbDictionaryWithDefault
  3
ObjectDBX Classes
 90
        0
280
     0
281
     0
  0
CLASS
  1
MATERIAL
  2
AcDbMaterial
  3
ObjectDBX Classes
 90
     1024
280
     0
281
     0
  0
CLASS
  1
VISUALSTYLE
  2
AcDbVisualStyle
  3
ObjectDBX Classes
 90
     4095
280
     0
281
     0
  0
CLASS
  1
TABLESTYLE
  2
AcDbTableStyle
  3
ObjectDBX Classes
 90
     4095
280
     0
281
     0
  0
CLASS
  1
DICTIONARYVAR
  2
AcDbDictionaryVar
  3
ObjectDBX Classes
 90
        0
280
     0
281
     0
  0
CLASS
  1
ACDBPLACEHOLDER
  2
AcDbPlaceHolder
  3
ObjectDBX Classes
 90
        0
280
     0
281
     0
  0
CLASS
  1
LAYOUT
  2
AcDbLayout
  3
ObjectDBX Classes
 90
        0
280
     0
281
     0
  0
ENDSEC
  0
SECTION
  2
TABLES
  0
TABLE
  2
VPORT
  5
8
330
0
100
AcDbSymbolTable
 70
     1
  0
VPORT
  5
28
330
8
100
AcDbSymbolTableRecord
100
AcDbViewportTableRecord
  2
*Active
 70
     0
 10
0.0
 20
0.0
 11
1.0
 21
1.0
 12
148.5
 22
105.0
 13
0.0
 23
0.0
 14
1.0
 24
1.0
 15
0.0
 25
0.0
 16
0.0
 26
0.0
 36
1.0
 17
0.0
 27
0.0
 37
0.0
 40
210.0
 41
1.414285714285714
 42
50.0
 43
0.0
 44
0.0
 50
0.0
 51
0.0
 71
     0
 72
   100
 73
     1
 74
     1
 75
     0
 76
     0
 77
     0
 78
     0
281
     0
 65
     1
110
0.0
120
0.0
130
0.0
111
1.0
121
0.0
131
0.0
112
0.0
122
1.0
132
0.0
 79
     0
146
0.0
  0
ENDTAB
  0
TABLE
  2
LTYPE
  5
5
330
0
100
AcDbSymbolTable
 70
    59
  0
LTYPE
  5
29
330
5
100
AcDbSymbolTableRecord
100
AcDbLinetypeTableRecord
  2
ByBlock
 70
     0
  3

 72
    65
 73
     0
 40
0.0
  0
LTYPE
  5
2A
330
5
100
AcDbSymbolTableRecord
100
AcDbLinetypeTableRecord
  2
ByLayer
 70
     0
  3

 72
    65
 73
     0
 40
0.0
  0
LTYPE
  5
2B
330
5
100
AcDbSymbolTableRecord
100
AcDbLinetypeTableRecord
  2
Continuous
 70
     0
  3
Solid line
 72
    65
 73
     0
 40
0.0
  0
LTYPE
  5
40
330
5
100
AcDbSymbolTableRecord
100
AcDbLinetypeTableRecord
  2
Section_View_Lines
 70
     0
  3
Section View Lines
 72
    65
 73
     4
 40
0.8406
 49
0.6614
 74
     0
 49
-0.0827
 74
     0
 49
0.0138
 74
     0
 49
-0.0827
 74
     0
  0
LTYPE
  5
41
330
5
100
AcDbSymbolTableRecord
100
AcDbLinetypeTableRecord
  2
CHAIN
 70
     0
  3
Chain ____ _ ____ _ ____ _ ____ _ ____ _ ____
 72
    65
 73
     4
 40
0.3543
 49
0.2362
 74
     0
 49
-0.0295
 74
     0
 49
0.0591
 74
     0
 49
-0.0295
 74
     0
  0
LTYPE
  5
42
330
5
100
AcDbSymbolTableRecord
100
AcDbLinetypeTableRecord
  2
DASH_DOT
 70
     0
  3
Dash dot _._._._._._._._._._._._._._._.
 72
    65
 73
     4
 40
0.37
 49
0.24
 74
     0
 49
-0.06
 74
     0
 49
0.01
 74
     0
 49
-0.06
 74
     0
  0
LTYPE
  5
43
330
5
100
AcDbSymbolTableRecord
100
AcDbLinetypeTableRecord
  2
DASH_DOUBLE_DOT
 70
     0
  3
Dash Double Dot __ __ . __ __ . __ __ . __ _
 72
    65
 73
     6
 40
0.4398
 49
0.24
 74
     0
 49
-0.06
 74
     0
 49
0.0098
 74
     0
 49
-0.06
 74
     0
 49
0.01
 74
     0
 49
-0.06
 74
     0
  0
LTYPE
  5
44
330
5
100
AcDbSymbolTableRecord
100
AcDbLinetypeTableRecord
  2
DASH_TRIPLE_DOT
 70
     0
  3
Dash Triple-Dot _ . . . _ . . . _ . . . _
 72
    65
 73
     8
 40
0.51
 49
0.24
 74
     0
 49
-0.06
 74
     0
 49
0.01
 74
     0
 49
-0.06
 74
     0
 49
0.01
 74
     0
 49
-0.06
 74
     0
 49
0.01
 74
     0
 49
-0.06
 74
     0
  0
LTYPE
  5
45
330
5
100
AcDbSymbolTableRecord
100
AcDbLinetypeTableRecord
  2
DASHED
 70
     0
  3
Dashed __ __ __ __ __ __ __ __ __ __ __ __ __ _
 72
    65
 73
     2
 40
0.2067
 49
0.1654
 74
     0
 49
-0.0413
 74
     0
  0
LTYPE
  5
46
330
5
100
AcDbSymbolTableRecord
100
AcDbLinetypeTableRecord
  2
DASHED_SPACE
 70
     0
  3
Dashed Space _._._._._._._._._._._._._._._.
 72
    65
 73
     2
 40
0.2067
 49
0.1654
 74
     0
 49
-0.0413
 74
     0
  0
LTYPE
  5
47
330
5
100
AcDbSymbolTableRecord
100
AcDbLinetypeTableRecord
  2
DOTTED
 70
     0
  3
Dotted . . . . . . . . . . . . . . . . . . . . 
 72
    65
 73
     2
 40
0.0482
 49
0.0069
 74
     0
 49
-0.0413
 74
     0
  0
LTYPE
  5
48
330
5
100
AcDbSymbolTableRecord
100
AcDbLinetypeTableRecord
  2
DOUBLE_DASH_CHAIN
 70
     0
  3
Double Dash Chain ___ _ _ ___ _ _ ___ _ _ ___ _
 72
    65
 73
     6
 40
1.240299999999999
 49
0.6614
 74
     0
 49
-0.0827
 74
     0
 49
0.1654
 74
     0
 49
-0.0827
 74
     0
 49
0.1654
 74
     0
 49
-0.0827
 74
     0
  0
LTYPE
  5
49
330
5
100
AcDbSymbolTableRecord
100
AcDbLinetypeTableRecord
  2
DOUBLE_DASH_DOT
 70
     0
  3
Double Dash Dot __ __ . __ __ . __ __ . __ _
 72
    65
 73
     6
 40
0.67
 49
0.24
 74
     0
 49
-0.06
 74
     0
 49
0.24
 74
     0
 49
-0.06
 74
     0
 49
0.01
 74
     0
 49
-0.06
 74
     0
  0
LTYPE
  5
4A
330
5
100
AcDbSymbolTableRecord
100
AcDbLinetypeTableRecord
  2
DOUBLE_DASH_DOUBLE_DOT
 70
     0
  3
Double-dash double-dot _ _ . . _ _ . . _
 72
    65
 73
     8
 40
0.7400000000000001
 49
0.24
 74
     0
 49
-0.06
 74
     0
 49
0.24
 74
     0
 49
-0.06
 74
     0
 49
0.01
 74
     0
 49
-0.06
 74
     0
 49
0.01
 74
     0
 49
-0.06
 74
     0
  0
LTYPE
  5
4B
330
5
100
AcDbSymbolTableRecord
100
AcDbLinetypeTableRecord
  2
DOUBLE_DASH_TRIPLE_DOT
 70
     0
  3
Double Dash Triple Dot __ __ . . . __ __ . . .
 72
    65
 73
    10
 40
0.8100000000000001
 49
0.24
 74
     0
 49
-0.06
 74
     0
 49
0.24
 74
     0
 49
-0.06
 74
     0
 49
0.01
 74
     0
 49
-0.06
 74
     0
 49
0.01
 74
     0
 49
-0.06
 74
     0
 49
0.01
 74
     0
 49
-0.06
 74
     0
  0
LTYPE
  5
4C
330
5
100
AcDbSymbolTableRecord
100
AcDbLinetypeTableRecord
  2
LONG_DASH_DOTTED
 70
     0
  3
Long-Dash Dot ____ . ____ . ____ . ____ . _
 72
    65
 73
     4
 40
0.3001
 49
0.2362
 74
     0
 49
-0.0295
 74
     0
 49
0.0049
 74
     0
 49
-0.0295
 74
     0
  0
LTYPE
  5
4D
330
5
100
AcDbSymbolTableRecord
100
AcDbLinetypeTableRecord
  2
LONG_DASH_DOUBLE_DOT
 70
     0
  3
Long Dash Double Dot ____ . . ____ . . ____ . .
 72
    65
 73
     6
 40
0.3345
 49
0.2362
 74
     0
 49
-0.0295
 74
     0
 49
0.0049
 74
     0
 49
-0.0295
 74
     0
 49
0.0049
 74
     0
 49
-0.0295
 74
     0
  0
LTYPE
  5
4E
330
5
100
AcDbSymbolTableRecord
100
AcDbLinetypeTableRecord
  2
LONG_DASH_TRIPLE_DOT
 70
     0
  3
Long Dash Triple Dot ____ ... ____ ... ____
 72
    65
 73
     8
 40
0.75
 49
0.48
 74
     0
 49
-0.06
 74
     0
 49
0.01
 74
     0
 49
-0.06
 74
     0
 49
0.01
 74
     0
 49
-0.06
 74
     0
 49
0.01
 74
     0
 49
-0.06
 74
     0
  0
LTYPE
  5
4F
330
5
100
AcDbSymbolTableRecord
100
AcDbLinetypeTableRecord
  2
BORDER
 70
     0
  3
Border __ __ . __ __ . __ __ . __ __ . __ __ .
 72
    65
 73
     6
 40
44.45
 49
12.7
 74
     0
 49
-6.349999999999999
 74
     0
 49
12.7
 74
     0
 49
-6.349999999999999
 74
     0
 49
0.0
 74
     0
 49
-6.349999999999999
 74
     0
  0
LTYPE
  5
50
330
5
100
AcDbSymbolTableRecord
100
AcDbLinetypeTableRecord
  2
BORDER2
 70
     0
  3
Border (.5x) __.__.__.__.__.__.__.__.__.__.__.
 72
    65
 73
     6
 40
22.225
 49
6.349999999999999
 74
     0
 49
-3.174999999999999
 74
     0
 49
6.349999999999999
 74
     0
 49
-3.174999999999999
 74
     0
 49
0.0
 74
     0
 49
-3.174999999999999
 74
     0
  0
LTYPE
  5
51
330
5
100
AcDbSymbolTableRecord
100
AcDbLinetypeTableRecord
  2
BORDERX2
 70
     0
  3
Border (2x) ____  ____  .  ____  ____  .  ___
 72
    65
 73
     6
 40
88.9
 49
25.4
 74
     0
 49
-12.7
 74
     0
 49
25.4
 74
     0
 49
-12.7
 74
     0
 49
0.0
 74
     0
 49
-12.7
 74
     0
  0
LTYPE
  5
52
330
5
100
AcDbSymbolTableRecord
100
AcDbLinetypeTableRecord
  2
CENTER
 70
     0
  3
Center ____ _ ____ _ ____ _ ____ _ ____ _ ____
 72
    65
 73
     4
 40
50.8
 49
31.75
 74
     0
 49
-6.349999999999999
 74
     0
 49
6.349999999999999
 74
     0
 49
-6.349999999999999
 74
     0
  0
LTYPE
  5
53
330
5
100
AcDbSymbolTableRecord
100
AcDbLinetypeTableRecord
  2
CENTER2
 70
     0
  3
Center (.5x) ___ _ ___ _ ___ _ ___ _ ___ _ ___
 72
    65
 73
     4
 40
28.575
 49
19.05
 74
     0
 49
-3.174999999999999
 74
     0
 49
3.174999999999999
 74
     0
 49
-3.174999999999999
 74
     0
  0
LTYPE
  5
54
330
5
100
AcDbSymbolTableRecord
100
AcDbLinetypeTableRecord
  2
CENTERX2
 70
     0
  3
Center (2x) ________  __  ________  __  _____
 72
    65
 73
     4
 40
101.6
 49
63.5
 74
     0
 49
-12.7
 74
     0
 49
12.7
 74
     0
 49
-12.7
 74
     0
  0
LTYPE
  5
55
330
5
100
AcDbSymbolTableRecord
100
AcDbLinetypeTableRecord
  2
DASHDOT2
 70
     0
  3
Dash dot (.5x) _._._._._._._._._._._._._._._.
 72
    65
 73
     4
 40
12.7
 49
6.349999999999999
 74
     0
 49
-3.174999999999999
 74
     0
 49
0.0
 74
     0
 49
-3.174999999999999
 74
     0
  0
LTYPE
  5
56
330
5
100
AcDbSymbolTableRecord
100
AcDbLinetypeTableRecord
  2
DASHDOTX2
 70
     0
  3
Dash dot (2x) ____  .  ____  .  ____  .  ___
 72
    65
 73
     4
 40
50.8
 49
25.4
 74
     0
 49
-12.7
 74
     0
 49
0.0
 74
     0
 49
-12.7
 74
     0
  0
LTYPE
  5
57
330
5
100
AcDbSymbolTableRecord
100
AcDbLinetypeTableRecord
  2
DASHED2
 70
     0
  3
Dashed (.5x) _ _ _ _ _ _ _ _ _ _ _ _ _ _ _ _ _
 72
    65
 73
     2
 40
9.524999999999998
 49
6.349999999999999
 74
     0
 49
-3.174999999999999
 74
     0
  0
LTYPE
  5
58
330
5
100
AcDbSymbolTableRecord
100
AcDbLinetypeTableRecord
  2
DASHEDX2
 70
     0
  3
Dashed (2x) ____  ____  ____  ____  ____  ___
 72
    65
 73
     2
 40
38.1
 49
25.4
 74
     0
 49
-12.7
 74
     0
  0
LTYPE
  5
59
330
5
100
AcDbSymbolTableRecord
100
AcDbLinetypeTableRecord
  2
DIVIDE
 70
     0
  3
Divide ____ . . ____ . . ____ . . ____ . . ____
 72
    65
 73
     6
 40
31.75
 49
12.7
 74
     0
 49
-6.349999999999999
 74
     0
 49
0.0
 74
     0
 49
-6.349999999999999
 74
     0
 49
0.0
 74
     0
 49
-6.349999999999999
 74
     0
  0
LTYPE
  5
5A
330
5
100
AcDbSymbolTableRecord
100
AcDbLinetypeTableRecord
  2
DIVIDE2
 70
     0
  3
Divide (.5x) __..__..__..__..__..__..__..__.._
 72
    65
 73
     6
 40
15.875
 49
6.349999999999999
 74
     0
 49
-3.174999999999999
 74
     0
 49
0.0
 74
     0
 49
-3.174999999999999
 74
     0
 49
0.0
 74
     0
 49
-3.174999999999999
 74
     0
  0
LTYPE
  5
5B
330
5
100
AcDbSymbolTableRecord
100
AcDbLinetypeTableRecord
  2
DIVIDEX2
 70
     0
  3
Divide (2x) ________  .  .  ________  .  .  _
 72
    65
 73
     6
 40
63.49999999999999
 49
25.4
 74
     0
 49
-12.7
 74
     0
 49
0.0
 74
     0
 49
-12.7
 74
     0
 49
0.0
 74
     0
 49
-12.7
 74
     0
  0
LTYPE
  5
5C
330
5
100
AcDbSymbolTableRecord
100
AcDbLinetypeTableRecord
  2
DOT
 70
     0
  3
Dot . . . . . . . . . . . . . . . . . . . . . .
 72
    65
 73
     2
 40
6.349999999999999
 49
0.0
 74
     0
 49
-6.349999999999999
 74
     0
  0
LTYPE
  5
5D
330
5
100
AcDbSymbolTableRecord
100
AcDbLinetypeTableRecord
  2
DOT2
 70
     0
  3
Dot (.5x) .....................................
 72
    65
 73
     2
 40
3.174999999999999
 49
0.0
 74
     0
 49
-3.174999999999999
 74
     0
  0
LTYPE
  5
5E
330
5
100
AcDbSymbolTableRecord
100
AcDbLinetypeTableRecord
  2
DOTX2
 70
     0
  3
Dot (2x) .  .  .  .  .  .  .  .  .  .  .  .  . 
 72
    65
 73
     2
 40
12.7
 49
0.0
 74
     0
 49
-12.7
 74
     0
  0
LTYPE
  5
5F
330
5
100
AcDbSymbolTableRecord
100
AcDbLinetypeTableRecord
  2
HIDDEN
 70
     0
  3
Hidden __ __ __ __ __ __ __ __ __ __ __ __ __ _
 72
    65
 73
     2
 40
9.524999999999998
 49
6.349999999999999
 74
     0
 49
-3.174999999999999
 74
     0
  0
LTYPE
  5
60
330
5
100
AcDbSymbolTableRecord
100
AcDbLinetypeTableRecord
  2
HIDDEN2
 70
     0
  3
Hidden (.5x) _ _ _ _ _ _ _ _ _ _ _ _ _ _ _ _ _
 72
    65
 73
     2
 40
4.762499999999999
 49
3.174999999999999
 74
     0
 49
-1.587499999999999
 74
     0
  0
LTYPE
  5
61
330
5
100
AcDbSymbolTableRecord
100
AcDbLinetypeTableRecord
  2
HIDDENX2
 70
     0
  3
Hidden (2x) ____ ____ ____ ____ ____ ____ ____
 72
    65
 73
     2
 40
19.05
 49
12.7
 74
     0
 49
-6.349999999999999
 74
     0
  0
LTYPE
  5
62
330
5
100
AcDbSymbolTableRecord
100
AcDbLinetypeTableRecord
  2
PHANTOM
 70
     0
  3
Phantom ______  __  __  ______  __  __  ______
 72
    65
 73
     6
 40
63.5
 49
31.75
 74
     0
 49
-6.349999999999999
 74
     0
 49
6.349999999999999
 74
     0
 49
-6.349999999999999
 74
     0
 49
6.349999999999999
 74
     0
 49
-6.349999999999999
 74
     0
  0
LTYPE
  5
63
330
5
100
AcDbSymbolTableRecord
100
AcDbLinetypeTableRecord
  2
PHANTOM2
 70
     0
  3
Phantom (.5x) ___ _ _ ___ _ _ ___ _ _ ___ _ _
 72
    65
 73
     6
 40
31.75
 49
15.875
 74
     0
 49
-3.174999999999999
 74
     0
 49
3.174999999999999
 74
     0
 49
-3.174999999999999
 74
     0
 49
3.174999999999999
 74
     0
 49
-3.174999999999999
 74
     0
  0
LTYPE
  5
64
330
5
100
AcDbSymbolTableRecord
100
AcDbLinetypeTableRecord
  2
PHANTOMX2
 70
     0
  3
Phantom (2x) ____________    ____    ____   _
 72
    65
 73
     6
 40
127.0
 49
63.5
 74
     0
 49
-12.7
 74
     0
 49
12.7
 74
     0
 49
-12.7
 74
     0
 49
12.7
 74
     0
 49
-12.7
 74
     0
  0
LTYPE
  5
65
330
5
100
AcDbSymbolTableRecord
100
AcDbLinetypeTableRecord
  2
ACAD_ISO02W100
 70
     0
  3
ISO dash __ __ __ __ __ __ __ __ __ __ __ __ __
 72
    65
 73
     2
 40
15.0
 49
12.0
 74
     0
 49
-3.0
 74
     0
  0
LTYPE
  5
66
330
5
100
AcDbSymbolTableRecord
100
AcDbLinetypeTableRecord
  2
ACAD_ISO03W100
 70
     0
  3
ISO dash space __    __    __    __    __    __
 72
    65
 73
     2
 40
30.0
 49
12.0
 74
     0
 49
-18.0
 74
     0
  0
LTYPE
  5
67
330
5
100
AcDbSymbolTableRecord
100
AcDbLinetypeTableRecord
  2
ACAD_ISO04W100
 70
     0
  3
ISO long-dash dot ____ . ____ . ____ . ____ . _
 72
    65
 73
     4
 40
30.0
 49
24.0
 74
     0
 49
-3.0
 74
     0
 49
0.0
 74
     0
 49
-3.0
 74
     0
  0
LTYPE
  5
68
330
5
100
AcDbSymbolTableRecord
100
AcDbLinetypeTableRecord
  2
ACAD_ISO05W100
 70
     0
  3
ISO long-dash double-dot ____ .. ____ .. ____ .
 72
    65
 73
     6
 40
33.0
 49
24.0
 74
     0
 49
-3.0
 74
     0
 49
0.0
 74
     0
 49
-3.0
 74
     0
 49
0.0
 74
     0
 49
-3.0
 74
     0
  0
LTYPE
  5
69
330
5
100
AcDbSymbolTableRecord
100
AcDbLinetypeTableRecord
  2
ACAD_ISO06W100
 70
     0
  3
ISO long-dash triple-dot ____ ... ____ ... ____
 72
    65
 73
     8
 40
36.0
 49
24.0
 74
     0
 49
-3.0
 74
     0
 49
0.0
 74
     0
 49
-3.0
 74
     0
 49
0.0
 74
     0
 49
-3.0
 74
     0
 49
0.0
 74
     0
 49
-3.0
 74
     0
  0
LTYPE
  5
6A
330
5
100
AcDbSymbolTableRecord
100
AcDbLinetypeTableRecord
  2
ACAD_ISO07W100
 70
     0
  3
ISO dot . . . . . . . . . . . . . . . . . . . .
 72
    65
 73
     2
 40
3.0
 49
0.0
 74
     0
 49
-3.0
 74
     0
  0
LTYPE
  5
6B
330
5
100
AcDbSymbolTableRecord
100
AcDbLinetypeTableRecord
  2
ACAD_ISO08W100
 70
     0
  3
ISO long-dash short-dash ____ __ ____ __ ____ _
 72
    65
 73
     4
 40
36.0
 49
24.0
 74
     0
 49
-3.0
 74
     0
 49
6.0
 74
     0
 49
-3.0
 74
     0
  0
LTYPE
  5
6C
330
5
100
AcDbSymbolTableRecord
100
AcDbLinetypeTableRecord
  2
ACAD_ISO09W100
 70
     0
  3
ISO long-dash double-short-dash ____ __ __ ____
 72
    65
 73
     6
 40
45.0
 49
24.0
 74
     0
 49
-3.0
 74
     0
 49
6.0
 74
     0
 49
-3.0
 74
     0
 49
6.0
 74
     0
 49
-3.0
 74
     0
  0
LTYPE
  5
6D
330
5
100
AcDbSymbolTableRecord
100
AcDbLinetypeTableRecord
  2
ACAD_ISO10W100
 70
     0
  3
ISO dash dot __ . __ . __ . __ . __ . __ . __ .
 72
    65
 73
     4
 40
18.0
 49
12.0
 74
     0
 49
-3.0
 74
     0
 49
0.0
 74
     0
 49
-3.0
 74
     0
  0
LTYPE
  5
6E
330
5
100
AcDbSymbolTableRecord
100
AcDbLinetypeTableRecord
  2
ACAD_ISO11W100
 70
     0
  3
ISO double-dash dot __ __ . __ __ . __ __ . __ 
 72
    65
 73
     6
 40
33.0
 49
12.0
 74
     0
 49
-3.0
 74
     0
 49
12.0
 74
     0
 49
-3.0
 74
     0
 49
0.0
 74
     0
 49
-3.0
 74
     0
  0
LTYPE
  5
6F
330
5
100
AcDbSymbolTableRecord
100
AcDbLinetypeTableRecord
  2
ACAD_ISO12W100
 70
     0
  3
ISO dash double-dot __ . . __ . . __ . . __ . .
 72
    65
 73
     6
 40
21.0
 49
12.0
 74
     0
 49
-3.0
 74
     0
 49
0.0
 74
     0
 49
-3.0
 74
     0
 49
0.0
 74
     0
 49
-3.0
 74
     0
  0
LTYPE
  5
70
330
5
100
AcDbSymbolTableRecord
100
AcDbLinetypeTableRecord
  2
ACAD_ISO13W100
 70
     0
  3
ISO double-dash double-dot __ __ . . __ __ . . 
 72
    65
 73
     8
 40
36.0
 49
12.0
 74
     0
 49
-3.0
 74
     0
 49
12.0
 74
     0
 49
-3.0
 74
     0
 49
0.0
 74
     0
 49
-3.0
 74
     0
 49
0.0
 74
     0
 49
-3.0
 74
     0
  0
LTYPE
  5
71
330
5
100
AcDbSymbolTableRecord
100
AcDbLinetypeTableRecord
  2
ACAD_ISO14W100
 70
     0
  3
ISO dash triple-dot __ . . . __ . . . __ . . . 
 72
    65
 73
     8
 40
24.0
 49
12.0
 74
     0
 49
-3.0
 74
     0
 49
0.0
 74
     0
 49
-3.0
 74
     0
 49
0.0
 74
     0
 49
-3.0
 74
     0
 49
0.0
 74
     0
 49
-3.0
 74
     0
  0
LTYPE
  5
72
330
5
100
AcDbSymbolTableRecord
100
AcDbLinetypeTableRecord
  2
ACAD_ISO15W100
 70
     0
  3
ISO double-dash triple-dot __ __ . . . __ __ . 
 72
    65
 73
    10
 40
39.0
 49
12.0
 74
     0
 49
-3.0
 74
     0
 49
12.0
 74
     0
 49
-3.0
 74
     0
 49
0.0
 74
     0
 49
-3.0
 74
     0
 49
0.0
 74
     0
 49
-3.0
 74
     0
 49
0.0
 74
     0
 49
-3.0
 74
     0
  0
LTYPE
  5
75
330
5
100
AcDbSymbolTableRecord
100
AcDbLinetypeTableRecord
  2
FENCELINE1
 70
     0
  3
Fenceline circle ----0-----0----0-----0----0---
 72
    65
 73
     4
 40
36.83
 49
6.349999999999999
 74
     0
 49
-2.54
 74
     4
 75
   133
340
74
 46
2.54
 50
0.0
 44
-2.54
 45
0.0
 49
-2.54
 74
     0
 49
25.4
 74
     0
  0
LTYPE
  5
76
330
5
100
AcDbSymbolTableRecord
100
AcDbLinetypeTableRecord
  2
FENCELINE2
 70
     0
  3
Fenceline square ----[]-----[]----[]-----[]----
 72
    65
 73
     4
 40
36.83
 49
6.349999999999999
 74
     0
 49
-2.54
 74
     4
 75
   132
340
74
 46
2.54
 50
0.0
 44
-2.54
 45
0.0
 49
-2.54
 74
     0
 49
25.4
 74
     0
  0
LTYPE
  5
77
330
5
100
AcDbSymbolTableRecord
100
AcDbLinetypeTableRecord
  2
TRACKS
 70
     0
  3
Tracks -|-|-|-|-|-|-|-|-|-|-|-|-|-|-|-|-|-|-|-|
 72
    65
 73
     2
 40
7.62
 49
3.81
 74
     4
 75
   130
340
74
 46
6.349999999999999
 50
0.0
 44
0.0
 45
0.0
 49
3.81
 74
     0
  0
LTYPE
  5
78
330
5
100
AcDbSymbolTableRecord
100
AcDbLinetypeTableRecord
  2
BATTING
 70
     0
  3
Batting SSSSSSSSSSSSSSSSSSSSSSSSSSSSSSSSSSSSSSS
 72
    65
 73
     4
 40
10.16254
 49
0.00254
 74
     0
 49
-2.54
 74
     4
 75
   134
340
74
 46
2.54
 50
0.0
 44
-2.54
 45
0.0
 49
-5.08
 74
     4
 75
   134
340
74
 46
2.54
 50
180.0
 44
2.54
 45
0.0
 49
-2.54
 74
     0
  0
LTYPE
  5
79
330
5
100
AcDbSymbolTableRecord
100
AcDbLinetypeTableRecord
  2
HOT_WATER_SUPPLY
 70
     0
  3
Hot water supply ---- HW ---- HW ---- HW ----
 72
    65
 73
     3
 40
22.86
 49
12.7
 74
     0
 49
-5.08
 74
     2
 75
     0
340
26
 46
2.54
 50
0.0
 44
-2.54
 45
-1.27
  9
HW
 49
-5.08
 74
     0
  0
LTYPE
  5
7A
330
5
100
AcDbSymbolTableRecord
100
AcDbLinetypeTableRecord
  2
GAS_LINE
 70
     0
  3
Gas line ----GAS----GAS----GAS----GAS----GAS---
 72
    65
 73
     3
 40
24.13
 49
12.7
 74
     0
 49
-5.08
 74
     2
 75
     0
340
26
 46
2.54
 50
0.0
 44
-2.54
 45
-1.27
  9
GAS
 49
-6.349999999999999
 74
     0
  0
LTYPE
  5
7B
330
5
100
AcDbSymbolTableRecord
100
AcDbLinetypeTableRecord
  2
ZIGZAG
 70
     0
  3
Zig zag /\/\/\/\/\/\/\/\/\/\/\/\/\/\/\/\/\/\/\/
 72
    65
 73
     4
 40
20.32254
 49
0.00254
 74
     0
 49
-5.08
 74
     4
 75
   131
340
74
 46
5.08
 50
0.0
 44
-5.08
 45
0.0
 49
-10.16
 74
     4
 75
   131
340
74
 46
5.08
 50
180.0
 44
5.08
 45
0.0
 49
-5.08
 74
     0
  0
ENDTAB
  0
TABLE
  2
LAYER
  5
2
330
0
100
AcDbSymbolTable
 70
    74
  0
LAYER
  5
25
330
2
100
AcDbSymbolTableRecord
100
AcDbLayerTableRecord
  2
0
 70
     0
 62
     7
  6
Continuous
370
    -3
390
F
  0
LAYER
  5
90
330
2
100
AcDbSymbolTableRecord
100
AcDbLayerTableRecord
  2
Bemaßungen(TC_020513_DIN)
 70
     0
 62
     7
  6
Continuous
370
    25
390
F
  0
LAYER
  5
A2
330
2
100
AcDbSymbolTableRecord
100
AcDbLayerTableRecord
  2
Mittellinie(TC_020513_DIN)
 70
     0
 62
     7
  6
DASH_DOT
370
    25
390
F
  0
LAYER
  5
A4
330
2
100
AcDbSymbolTableRecord
100
AcDbLayerTableRecord
  2
Mittelpunktmarkierung(TC_020513_DIN)
 70
     0
 62
     7
  6
Continuous
370
    25
390
F
  0
LAYER
  5
AD
330
2
100
AcDbSymbolTableRecord
100
AcDbLayerTableRecord
  2
Schraffur
 70
     0
 62
   179
  6
Continuous
370
     9
390
F
  0
LAYER
  5
AF
330
2
100
AcDbSymbolTableRecord
100
AcDbLayerTableRecord
  2
Sichtbare Kanten(TC_020513_DIN)
 70
     0
 62
     7
  6
Continuous
370
    50
390
F
  0
LAYER
  5
B2
330
2
100
AcDbSymbolTableRecord
100
AcDbLayerTableRecord
  2
Skizziergeometrie(ISO)
 70
     0
 62
     7
  6
Continuous
370
    50
390
F
  0
LAYER
  5
B3
330
2
100
AcDbSymbolTableRecord
100
AcDbLayerTableRecord
  2
Skizziergeometrie(TC_020513_DIN)
 70
     0
 62
     7
  6
Continuous
370
    50
390
F
  0
LAYER
  5
B5
330
2
100
AcDbSymbolTableRecord
100
AcDbLayerTableRecord
  2
Skizzierlinie(TC_020513_DIN)
 70
     1
 62
     3
  6
Continuous
370
    18
390
F
  0
LAYER
  5
BA
330
2
100
AcDbSymbolTableRecord
100
AcDbLayerTableRecord
  2
Symbole(ISO)
 70
     0
 62
     7
  6
Continuous
370
    25
390
F
  0
LAYER
  5
BB
330
2
100
AcDbSymbolTableRecord
100
AcDbLayerTableRecord
  2
Symbole(TC_020513_DIN)
 70
     0
 62
     7
  6
Continuous
370
    35
390
F
  0
LAYER
  5
C1
330
2
100
AcDbSymbolTableRecord
100
AcDbLayerTableRecord
  2
Verdeckte Kanten(TC_020513_DIN)
 70
     0
 62
     7
  6
DASHED
370
    25
390
F
  0
LAYER
  5
455
330
2
100
AcDbSymbolTableRecord
100
AcDbLayerTableRecord
  2
Defpoints
 70
     0
 62
     7
  6
Continuous
290
     0
370
    -3
390
F
  0
ENDTAB
  0
TABLE
  2
STYLE
  5
3
330
0
100
AcDbSymbolTable
 70
    17
  0
STYLE
  5
26
330
3
100
AcDbSymbolTableRecord
100
AcDbTextStyleTableRecord
  2
Standard
 70
     0
 40
0.0
 41
1.0
 50
0.0
 71
     0
 42
0.2
  3
ARIAL.TTF
  4

1001
ACAD
1000
Arial
1071
      256
  0
STYLE
  5
74
330
3
100
AcDbSymbolTableRecord
100
AcDbTextStyleTableRecord
  2

 70
     1
 40
0.0
 41
1.0
 50
0.0
 71
     0
 42
0.2
  3
ltypeshp.shx
  4

  0
STYLE
  5
C4
330
3
100
AcDbSymbolTableRecord
100
AcDbTextStyleTableRecord
  2
Aktuell-BSI
 70
     0
 40
0.0
 41
1.0
 50
0.0
 71
     0
 42
0.2
  3
ARIAL.TTF
  4

1001
ACAD
1000
Arial
1071
      256
  0
STYLE
  5
C5
330
3
100
AcDbSymbolTableRecord
100
AcDbTextStyleTableRecord
  2
Kopie von TC 5 mm
 70
     0
 40
0.0
 41
1.199999928474426
 50
0.0
 71
     0
 42
0.2
  3
ARIAL.TTF
  4

1001
ACAD
1000
Arial
1071
      256
  0
STYLE
  5
C6
330
3
100
AcDbSymbolTableRecord
100
AcDbTextStyleTableRecord
  2
STANDARD-TC_020513_DIN
 70
     0
 40
0.0
 41
1.0
 50
0.0
 71
     0
 42
0.2
  3
ARIAL.TTF
  4

1001
ACAD
1000
Arial
1071
      256
  0
STYLE
  5
C7
330
3
100
AcDbSymbolTableRecord
100
AcDbTextStyleTableRecord
  2
STANDARD-TC_020513_DINGroßer Text
 70
     0
 40
0.0
 41
1.0
 50
0.0
 71
     0
 42
0.2
  3
ARIAL.TTF
  4

1001
ACAD
1000
Arial
1071
      256
  0
STYLE
  5
C8
330
3
100
AcDbSymbolTableRecord
100
AcDbTextStyleTableRecord
  2
STANDARD-TC_020513_DINNach Layer
 70
     0
 40
0.0
 41
1.0
 50
0.0
 71
     0
 42
0.2
  3
ARIAL.TTF
  4

1001
ACAD
1000
Arial
1071
      256
  0
STYLE
  5
C9
330
3
100
AcDbSymbolTableRecord
100
AcDbTextStyleTableRecord
  2
TC 2_5 mm
 70
     0
 40
0.0
 41
0.899999976158142
 50
0.0
 71
     0
 42
0.2
  3
ARIAL.TTF
  4

1001
ACAD
1000
Arial
1071
      256
  0
STYLE
  5
CA
330
3
100
AcDbSymbolTableRecord
100
AcDbTextStyleTableRecord
  2
TC 3_5 mm
 70
     0
 40
0.0
 41
0.7999999523162842
 50
0.0
 71
     0
 42
0.2
  3
ARIAL.TTF
  4

1001
ACAD
1000
Arial
1071
      256
  0
STYLE
  5
CB
330
3
100
AcDbSymbolTableRecord
100
AcDbTextStyleTableRecord
  2
TC 3_5 mmGroßer Text
 70
     0
 40
0.0
 41
0.899999976158142
 50
0.0
 71
     0
 42
0.2
  3
ARIAL.TTF
  4

1001
ACAD
1000
Arial
1071
      256
  0
STYLE
  5
CC
330
3
100
AcDbSymbolTableRecord
100
AcDbTextStyleTableRecord
  2
TC 3_5 mmNach Layer
 70
     0
 40
0.0
 41
0.899999976158142
 50
0.0
 71
     0
 42
0.2
  3
ARIAL.TTF
  4

1001
ACAD
1000
Arial
1071
      256
  0
STYLE
  5
CD
330
3
100
AcDbSymbolTableRecord
100
AcDbTextStyleTableRecord
  2
TC 4 mm
 70
     0
 40
0.0
 41
1.199999928474426
 50
0.0
 71
     0
 42
0.2
  3
ARIAL.TTF
  4

1001
ACAD
1000
Arial
1071
      256
  0
STYLE
  5
CE
330
3
100
AcDbSymbolTableRecord
100
AcDbTextStyleTableRecord
  2
TC 5 mm
 70
     0
 40
0.0
 41
0.899999976158142
 50
0.0
 71
     0
 42
0.2
  3
ARIAL.TTF
  4

1001
ACAD
1000
Arial
1071
      256
  0
STYLE
  5
CF
330
3
100
AcDbSymbolTableRecord
100
AcDbTextStyleTableRecord
  2
TC 5 mmNach Layer
 70
     0
 40
0.0
 41
0.899999976158142
 50
0.0
 71
     0
 42
0.2
  3
ARIAL.TTF
  4

1001
ACAD
1000
Arial
1071
      256
  0
STYLE
  5
D0
330
3
100
AcDbSymbolTableRecord
100
AcDbTextStyleTableRecord
  2
TC 7 mm
 70
     0
 40
0.0
 41
0.899999976158142
 50
0.0
 71
     0
 42
0.2
  3
ARIAL.TTF
  4

1001
ACAD
1000
Arial
1071
      256
  0
STYLE
  5
F9
330
3
100
AcDbSymbolTableRecord
100
AcDbTextStyleTableRecord
  2
TC 2_5 mm-ISOCPEUR
 70
     0
 40
0.0
 41
0.899999976158142
 50
0.0
 71
     0
 42
0.2
  3
isocpeur.ttf
  4

1001
ACAD
1000
ISOCPEUR
1071
      256
  0
STYLE
  5
FD
330
3
100
AcDbSymbolTableRecord
100
AcDbTextStyleTableRecord
  2
TC 3_5 mm-ISOCPEUR
 70
     0
 40
0.0
 41
0.899999976158142
 50
0.0
 71
     0
 42
0.2
  3
isocpeur.ttf
  4

1001
ACAD
1000
ISOCPEUR
1071
      256
  0
ENDTAB
  0
TABLE
  2
VIEW
  5
6
330
0
100
AcDbSymbolTable
 70
     0
  0
ENDTAB
  0
TABLE
  2
UCS
  5
7
330
0
100
AcDbSymbolTable
 70
     0
  0
ENDTAB
  0
TABLE
  2
APPID
  5
9
330
0
100
AcDbSymbolTable
 70
     1
  0
APPID
  5
27
330
9
100
AcDbSymbolTableRecord
100
AcDbRegAppTableRecord
  2
ACAD
 70
     0
  0
ENDTAB
  0
TABLE
  2
DIMSTYLE
  5
A
330
0
100
AcDbSymbolTable
 70
    17
100
AcDbDimStyleTable
 71
     2
340
D1
340
3F
  0
DIMSTYLE
105
3F
330
A
100
AcDbSymbolTableRecord
100
AcDbDimStyleTableRecord
  2
Standard
 70
     0
340
26
  0
DIMSTYLE
105
D1
102
{ACAD_REACTORS
330
454
330
4F6
330
5BB
330
676
330
73B
330
805
330
8C9
330
98E
330
A6D
330
B32
102
}
330
A
100
AcDbSymbolTableRecord
100
AcDbDimStyleTableRecord
  2
STANDARD-TC_020513_DIN
 70
     0
 41
2.5
 42
1.0
 43
6.0
 44
2.0
 45
0.00000001
 46
10.0
 73
     0
 74
     0
 77
     1
 78
    12
 79
     3
140
3.5
143
0.03937
147
0.8
171
     3
172
     1
176
     7
177
     7
178
     7
271
     2
272
     2
274
     3
278
    44
340
C4
371
    25
372
    25
  0
DIMSTYLE
105
D2
330
A
100
AcDbSymbolTableRecord
100
AcDbDimStyleTableRecord
  2
STANDARD-TC_020513_DIN$7
 70
     0
 41
2.5
 42
1.0
 43
6.0
 44
2.0
 45
0.00000001
 46
10.0
 73
     0
 74
     0
 77
     1
 78
    12
 79
     3
140
3.5
143
0.03937
147
0.8
171
     3
172
     1
176
     7
177
     7
178
     7
271
     2
272
     2
274
     3
278
    44
340
C4
371
    25
372
    25
  0
DIMSTYLE
105
D3
330
A
100
AcDbSymbolTableRecord
100
AcDbDimStyleTableRecord
  2
STANDARD-TC_020513_DINGroßer Text
 70
     0
 41
5.0
 42
0.0
 43
6.0
 44
3.174999999999999
 45
0.00000001
 46
10.0
 73
     0
 74
     0
 77
     1
140
5.25
143
0.03937
146
0.6666666666666666
147
0.8
171
     3
172
     1
176
     7
177
     7
178
     7
271
     2
272
     2
274
     3
278
    44
340
C7
371
    25
372
    25
  0
DIMSTYLE
105
D4
330
A
100
AcDbSymbolTableRecord
100
AcDbDimStyleTableRecord
  2
STANDARD-TC_020513_DINGroßer Text$7
 70
     0
 41
5.0
 42
0.0
 43
6.0
 44
3.174999999999999
 45
0.00000001
 46
10.0
 73
     0
 74
     0
 77
     1
140
5.25
143
0.03937
146
0.6666666666666666
147
0.8
171
     3
172
     1
176
     7
177
     7
178
     7
271
     2
272
     2
274
     3
278
    44
340
C7
371
    25
372
    25
  0
DIMSTYLE
105
D5
330
A
100
AcDbSymbolTableRecord
100
AcDbDimStyleTableRecord
  2
Teccon Kiel Stil
 70
     0
 41
2.5
 42
0.0
 43
7.0
 44
2.0
 45
0.00000001
 46
10.0
 73
     0
 74
     0
 77
     1
 78
    12
 79
     3
140
3.5
143
0.03937
147
1.0
171
     3
172
     1
176
     7
177
     7
178
     7
179
     1
271
     1
272
     2
274
     3
278
    44
340
CA
371
    25
372
    25
  0
DIMSTYLE
105
D6
330
A
100
AcDbSymbolTableRecord
100
AcDbDimStyleTableRecord
  2
Teccon Kiel Stil$7
 70
     0
 41
2.5
 42
0.0
 43
7.0
 44
2.0
 45
0.00000001
 46
10.0
 73
     0
 74
     0
 77
     1
 78
    12
 79
     3
140
3.5
143
0.03937
147
1.0
171
     3
172
     1
176
     7
177
     7
178
     7
179
     1
271
     1
272
     2
274
     3
278
    44
340
CA
371
    25
372
    25
  0
DIMSTYLE
105
D7
330
A
100
AcDbSymbolTableRecord
100
AcDbDimStyleTableRecord
  2
Teccon Kiel StilGroßer Text
 70
     0
 41
5.0
 42
0.0
 43
7.0
 44
2.0
 45
0.00000001
 46
10.0
 73
     0
 74
     0
 77
     1
 78
    12
 79
     3
140
5.25
143
0.03937
146
0.6666666666666666
147
1.0
171
     3
172
     1
176
     7
177
     7
178
     7
179
     1
271
     1
272
     2
274
     3
278
    44
340
CB
371
    25
372
    25
  0
DIMSTYLE
105
D8
330
A
100
AcDbSymbolTableRecord
100
AcDbDimStyleTableRecord
  2
Teccon Kiel StilGroßer Text$7
 70
     0
 41
5.0
 42
0.0
 43
7.0
 44
2.0
 45
0.00000001
 46
10.0
 73
     0
 74
     0
 77
     1
 78
    12
 79
     3
140
5.25
143
0.03937
146
0.6666666666666666
147
1.0
171
     3
172
     1
176
     7
177
     7
178
     7
179
     1
271
     1
272
     2
274
     3
278
    44
340
CB
371
    25
372
    25
  0
DIMSTYLE
105
D9
330
A
100
AcDbSymbolTableRecord
100
AcDbDimStyleTableRecord
  2
Führungslinie-Ursprungsindikator(ISO)
 70
     0
 41
2.5
340
26
342
DA
  0
DIMSTYLE
105
E1
330
A
100
AcDbSymbolTableRecord
100
AcDbDimStyleTableRecord
  2
Führungslinie-Ursprungsindikator(TC_020513_DIN)
 70
     0
 41
2.5
340
26
342
DA
  0
DIMSTYLE
105
EC
330
A
100
AcDbSymbolTableRecord
100
AcDbDimStyleTableRecord
  2
Führungslinie - Bezugsstelle(ISO)
 70
     0
 41
2.5
340
26
342
DA
  0
DIMSTYLE
105
ED
330
A
100
AcDbSymbolTableRecord
100
AcDbDimStyleTableRecord
  2
Führungslinie - Bezugsstelle(TC_020513_DIN)
 70
     0
 41
2.5
340
26
342
DA
  0
DIMSTYLE
105
EE
330
A
100
AcDbSymbolTableRecord
100
AcDbDimStyleTableRecord
  2
Führungslinie - Punkt(ISO)
 70
     0
 41
2.5
340
26
342
DA
  0
DIMSTYLE
105
EF
330
A
100
AcDbSymbolTableRecord
100
AcDbDimStyleTableRecord
  2
Führungslinie - Punkt(TC_020513_DIN)
 70
     0
 41
2.5
340
26
342
DA
  0
DIMSTYLE
105
F0
330
A
100
AcDbSymbolTableRecord
100
AcDbDimStyleTableRecord
  2
Führungslinie(ISO)
 70
     0
 41
2.5
340
26
342
DA
  0
DIMSTYLE
105
F1
330
A
100
AcDbSymbolTableRecord
100
AcDbDimStyleTableRecord
  2
Führungslinie(TC_020513_DIN)
 70
     0
 41
2.5
340
26
342
DA
  0
ENDTAB
  0
TABLE
  2
BLOCK_RECORD
  5
1
330
0
100
AcDbSymbolTable
 70
    21
  0
BLOCK_RECORD
  5
37
330
1
100
AcDbSymbolTableRecord
100
AcDbBlockTableRecord
  2
*Model_Space
340
3A
  0
BLOCK_RECORD
  5
33
330
1
100
AcDbSymbolTableRecord
100
AcDbBlockTableRecord
  2
*Paper_Space
340
36
  0
BLOCK_RECORD
  5
3B
330
1
100
AcDbSymbolTableRecord
100
AcDbBlockTableRecord
  2
*Paper_Space0
340
3E
  0
BLOCK_RECORD
  5
DA
330
1
100
AcDbSymbolTableRecord
100
AcDbBlockTableRecord
  2
_Closed
340
0
  0
BLOCK_RECORD
  5
E2
330
1
100
AcDbSymbolTableRecord
100
AcDbBlockTableRecord
  2
DatumFilled45
340
0
  0
BLOCK_RECORD
  5
F2
330
1
100
AcDbSymbolTableRecord
100
AcDbBlockTableRecord
  2
DIN 6930 (Toleranzklasse)
340
0
  0
BLOCK_RECORD
  5
103
330
1
100
AcDbSymbolTableRecord
100
AcDbBlockTableRecord
  2
nicht bemaßte Radien
340
0
  0
BLOCK_RECORD
  5
10C
330
1
100
AcDbSymbolTableRecord
100
AcDbBlockTableRecord
  2
DIN ISO 13715 (Werkstückkanten)
340
0
  0
BLOCK_RECORD
  5
130
330
1
100
AcDbSymbolTableRecord
100
AcDbBlockTableRecord
  2
EN 12329 (Chromatierung)
340
0
  0
BLOCK_RECORD
  5
138
330
1
100
AcDbSymbolTableRecord
100
AcDbBlockTableRecord
  2
ISO 2768 (zul. Abweichung)
340
0
  0
BLOCK_RECORD
  5
141
330
1
100
AcDbSymbolTableRecord
100
AcDbBlockTableRecord
  2
DIN ISO 1302 (Oberflächen)
340
0
  0
BLOCK_RECORD
  5
149
330
1
100
AcDbSymbolTableRecord
100
AcDbBlockTableRecord
  2
Ränder Ilme Rahmen A4 quer
340
0
102
{BLKREFS
331
153
102
}
  0
BLOCK_RECORD
  5
154
330
1
100
AcDbSymbolTableRecord
100
AcDbBlockTableRecord
  2
Schriftfelder Ilme
340
0
102
{BLKREFS
331
1C7
102
}
  0
BLOCK_RECORD
  5
456
330
1
100
AcDbSymbolTableRecord
100
AcDbBlockTableRecord
  2
*D11
340
0
  0
BLOCK_RECORD
  5
4F7
330
1
100
AcDbSymbolTableRecord
100
AcDbBlockTableRecord
  2
*D12
340
0
  0
BLOCK_RECORD
  5
5BC
330
1
100
AcDbSymbolTableRecord
100
AcDbBlockTableRecord
  2
*D13
340
0
  0
BLOCK_RECORD
  5
677
330
1
100
AcDbSymbolTableRecord
100
AcDbBlockTableRecord
  2
*D14
340
0
  0
BLOCK_RECORD
  5
73C
330
1
100
AcDbSymbolTableRecord
100
AcDbBlockTableRecord
  2
*D15
340
0
  0
BLOCK_RECORD
  5
806
330
1
100
AcDbSymbolTableRecord
100
AcDbBlockTableRecord
  2
*D16
340
0
  0
BLOCK_RECORD
  5
8CA
330
1
100
AcDbSymbolTableRecord
100
AcDbBlockTableRecord
  2
*D17
340
0
  0
BLOCK_RECORD
  5
98F
330
1
100
AcDbSymbolTableRecord
100
AcDbBlockTableRecord
  2
*D18
340
0
  0
BLOCK_RECORD
  5
A6E
330
1
100
AcDbSymbolTableRecord
100
AcDbBlockTableRecord
  2
*D19
340
0
  0
BLOCK_RECORD
  5
B33
330
1
100
AcDbSymbolTableRecord
100
AcDbBlockTableRecord
  2
*D20
340
0
  0
ENDTAB
  0
ENDSEC
  0
SECTION
  2
BLOCKS
  0
BLOCK
  5
38
330
37
100
AcDbEntity
  8
0
100
AcDbBlockBegin
  2
*Model_Space
 70
     0
 10
0.0
 20
0.0
 30
0.0
  3
*Model_Space
  1

  0
ENDBLK
  5
39
330
37
100
AcDbEntity
  8
0
100
AcDbBlockEnd
  0
BLOCK
  5
34
330
33
100
AcDbEntity
 67
     1
  8
0
100
AcDbBlockBegin
  2
*Paper_Space
 70
     0
 10
0.0
 20
0.0
 30
0.0
  3
*Paper_Space
  1

  0
ENDBLK
  5
35
330
33
100
AcDbEntity
 67
     1
  8
0
100
AcDbBlockEnd
  0
BLOCK
  5
3C
330
3B
100
AcDbEntity
 67
     1
  8
0
100
AcDbBlockBegin
  2
*Paper_Space0
 70
     0
 10
0.0
 20
0.0
 30
0.0
  3
*Paper_Space0
  1

  0
ENDBLK
  5
3D
330
3B
100
AcDbEntity
 67
     1
  8
0
100
AcDbBlockEnd
  0
BLOCK
  5
DF
330
DA
100
AcDbEntity
  8
0
100
AcDbBlockBegin
  2
_Closed
 70
     0
 10
0.0
 20
0.0
 30
0.0
  3
_Closed
  1

  0
LINE
  5
DB
330
DA
100
AcDbEntity
  8
0
  6
ByBlock
 62
     0
370
    -2
100
AcDbLine
 10
-1.0
 20
0.1666666666666666
 30
0.0
 11
0.0
 21
0.0
 31
0.0
  0
LINE
  5
DC
330
DA
100
AcDbEntity
  8
0
  6
ByBlock
 62
     0
370
    -2
100
AcDbLine
 10
0.0
 20
0.0
 30
0.0
 11
-1.0
 21
-0.1666666666666666
 31
0.0
  0
LINE
  5
DD
330
DA
100
AcDbEntity
  8
0
  6
ByBlock
 62
     0
370
    -2
100
AcDbLine
 10
-1.0
 20
0.1666666666666666
 30
0.0
 11
-1.0
 21
-0.1666666666666666
 31
0.0
  0
LINE
  5
DE
330
DA
100
AcDbEntity
  8
0
  6
ByBlock
 62
     0
370
    -2
100
AcDbLine
 10
0.0
 20
0.0
 30
0.0
 11
-1.0
 21
0.0
 31
0.0
  0
ENDBLK
  5
E0
330
DA
100
AcDbEntity
  8
0
100
AcDbBlockEnd
  0
BLOCK
  5
E3
330
E2
100
AcDbEntity
  8
0
100
AcDbBlockBegin
  2
DatumFilled45
 70
     0
 10
0.0
 20
0.0
 30
0.0
  3
DatumFilled45
  1

  0
POLYLINE
  5
E5
330
E2
100
AcDbEntity
  8
0
 62
     0
100
AcDb2dPolyline
 66
     1
 10
0.0
 20
0.0
 30
0.0
 70
   128
  0
VERTEX
  5
E6
330
E5
100
AcDbEntity
  8
0
 62
     0
100
AcDbVertex
100
AcDb2dVertex
 10
0.0
 20
1.0
 30
0.0
  0
VERTEX
  5
E7
330
E5
100
AcDbEntity
  8
0
 62
     0
100
AcDbVertex
100
AcDb2dVertex
 10
0.0
 20
-1.0
 30
0.0
  0
VERTEX
  5
E9
330
E5
100
AcDbEntity
  8
0
 62
     0
100
AcDbVertex
100
AcDb2dVertex
 10
-1.0
 20
0.0
 30
0.0
  0
VERTEX
  5
EA
330
E5
100
AcDbEntity
  8
0
 62
     0
100
AcDbVertex
100
AcDb2dVertex
 10
0.0
 20
1.0
 30
0.0
  0
SEQEND
  5
E8
330
E5
100
AcDbEntity
  8
0
 62
     0
  0
SOLID
  5
EB
330
E2
100
AcDbEntity
  8
0
 62
     0
100
AcDbTrace
 10
0.0
 20
1.0
 30
0.0
 11
0.0
 21
-1.0
 31
0.0
 12
-1.0
 22
0.0
 32
0.0
 13
0.0
 23
1.0
 33
0.0
  0
ENDBLK
  5
E4
330
E2
100
AcDbEntity
  8
0
100
AcDbBlockEnd
  0
BLOCK
  5
F3
330
F2
100
AcDbEntity
  8
0
100
AcDbBlockBegin
  2
DIN 6930 (Toleranzklasse)
 70
     2
 10
0.0
 20
0.0
 30
0.0
  3
DIN 6930 (Toleranzklasse)
  1

  0
LINE
  5
F5
330
F2
100
AcDbEntity
  8
Skizziergeometrie(ISO)
100
AcDbLine
 10
-49.99999999999999
 20
24.99999999999996
 30
0.0
 11
0.0
 21
24.99999999999996
 31
0.0
  0
LINE
  5
F6
330
F2
100
AcDbEntity
  8
Skizziergeometrie(ISO)
100
AcDbLine
 10
0.0
 20
24.99999999999996
 30
0.0
 11
0.0
 21
0.0
 31
0.0
  0
LINE
  5
F7
330
F2
100
AcDbEntity
  8
Skizziergeometrie(ISO)
100
AcDbLine
 10
0.0
 20
0.0
 30
0.0
 11
-49.99999999999999
 21
0.0
 31
0.0
  0
LINE
  5
F8
330
F2
100
AcDbEntity
  8
Skizziergeometrie(ISO)
100
AcDbLine
 10
-49.99999999999999
 20
0.0
 30
0.0
 11
-49.99999999999999
 21
24.99999999999996
 31
0.0
  0
MTEXT
  5
FA
102
{ACAD_XDICTIONARY
360
C07
102
}
330
F2
100
AcDbEntity
  8
Symbole(ISO)
 62
     7
100
AcDbMText
 10
-25.01617139266887
 20
22.49496284479633
 30
0.0
 40
2.5
 41
49.93534911063455
 71
     5
 72
     1
  1
F\U+00FCr spanlose Bearbeitung
  7
TC 2_5 mm-ISOCPEUR
 73
     1
 44
1.0
1001
ACAD
1000
MTEXTBEGIN
1070
    73
1070
     1
1070
    44
1040
1.0
1070
    74
1070
     0
1000
MTEXTEND
  0
MTEXT
  5
FC
330
F2
100
AcDbEntity
  8
Symbole(ISO)
 62
     7
100
AcDbMText
 10
-24.96550299476308
 20
17.97814514565743
 30
0.0
 40
2.5
 41
49.94698265738096
 71
     5
 72
     1
  1
Allgemeintoleranz
  7
TC 2_5 mm-ISOCPEUR
 73
     1
 44
1.0
1001
ACAD
1000
MTEXTBEGIN
1070
    73
1070
     1
1070
    44
1040
1.0
1070
    74
1070
     0
1000
MTEXTEND
  0
MTEXT
  5
FE
330
F2
100
AcDbEntity
  8
Symbole(ISO)
 62
     7
100
AcDbMText
 10
-22.00032990803074
 20
12.97814514565747
 30
0.0
 40
3.499999940395355
 41
28.04641142085023
 71
     6
 72
     1
  1
DIN 6930-
  7
TC 3_5 mm-ISOCPEUR
 73
     1
 44
1.0
1001
ACAD
1000
MTEXTBEGIN
1070
    73
1070
     1
1070
    44
1040
1.0
1070
    74
1070
     0
1000
MTEXTEND
  0
MTEXT
  5
FF
330
F2
100
AcDbEntity
  8
Symbole(ISO)
 62
     7
100
AcDbMText
 10
-24.98510412015335
 20
5.018941170990345
 30
0.0
 40
2.5
 41
50.05946813167525
 71
     5
 72
     1
  1
(zul. Abweichung der\PWinkelstellung DIN 6935)
  7
TC 2_5 mm-ISOCPEUR
 73
     2
 44
1.068348169326782
1001
ACAD
1000
MTEXTBEGIN
1070
    73
1070
     2
1070
    44
1040
1.068348169326782
1070
    74
1070
     0
1000
MTEXTEND
  0
ATTDEF
  5
100
330
F2
100
AcDbEntity
  8
Symbole(ISO)
 62
     7
100
AcDbText
 10
-21.93383492465724
 20
11.2184168455105
 30
0.0
 40
3.499999940395355
  1
 
 41
0.899999976158142
  7
TC 3_5 mm-ISOCPEUR
 11
-21.93383492465724
 21
12.96841681570818
 31
0.0
100
AcDbAttributeDefinition
  3
Toleranzklasse
  2
Toleranzklasse
 70
     0
 74
     2
  0
ENDBLK
  5
F4
330
F2
100
AcDbEntity
  8
0
100
AcDbBlockEnd
  0
BLOCK
  5
104
330
103
100
AcDbEntity
  8
0
100
AcDbBlockBegin
  2
nicht bemaßte Radien
 70
     2
 10
0.0
 20
0.0
 30
0.0
  3
nicht bemaßte Radien
  1

  0
LINE
  5
106
330
103
100
AcDbEntity
  8
Skizziergeometrie(ISO)
100
AcDbLine
 10
0.0
 20
0.0
 30
0.0
 11
-50.0
 21
0.0
 31
0.0
  0
LINE
  5
107
330
103
100
AcDbEntity
  8
Skizziergeometrie(ISO)
100
AcDbLine
 10
-50.0
 20
0.0
 30
0.0
 11
-50.0
 21
5.0
 31
0.0
  0
LINE
  5
108
330
103
100
AcDbEntity
  8
Skizziergeometrie(ISO)
100
AcDbLine
 10
-50.0
 20
5.0
 30
0.0
 11
0.0
 21
5.0
 31
0.0
  0
LINE
  5
109
330
103
100
AcDbEntity
  8
Skizziergeometrie(ISO)
100
AcDbLine
 10
0.0
 20
5.0
 30
0.0
 11
0.0
 21
0.0
 31
0.0
  0
MTEXT
  5
10A
102
{ACAD_XDICTIONARY
360
C09
102
}
330
103
100
AcDbEntity
  8
Symbole(ISO)
 62
     7
100
AcDbMText
 10
-28.98102517277721
 20
2.530616500783118
 30
0.0
 40
2.5
 41
41.95492584233122
 71
     5
 72
     1
  1
Alle nicht bema\U+00DFten Radien R
  7
TC 2_5 mm-ISOCPEUR
 73
     1
 44
1.0
1001
ACAD
1000
MTEXTBEGIN
1070
    73
1070
     1
1070
    44
1040
1.0
1070
    74
1070
     0
1000
MTEXTEND
  0
ATTDEF
  5
10B
330
103
100
AcDbEntity
  8
Symbole(ISO)
 62
     7
100
AcDbText
 10
-4.624331584212832
 20
1.293984431277515
 30
0.0
 40
2.5
  1
 
 41
0.899999976158142
  7
TC 2_5 mm-ISOCPEUR
 72
     1
 11
-3.949331602094225
 21
2.543984431277515
 31
0.0
100
AcDbAttributeDefinition
  3
Radius
  2
Radius
 70
     0
 74
     2
  0
ENDBLK
  5
105
330
103
100
AcDbEntity
  8
0
100
AcDbBlockEnd
  0
BLOCK
  5
10D
330
10C
100
AcDbEntity
  8
0
100
AcDbBlockBegin
  2
DIN ISO 13715 (Werkstückkanten)
 70
     2
 10
0.0
 20
0.0
 30
0.0
  3
DIN ISO 13715 (Werkstückkanten)
  1

  0
LINE
  5
10F
102
{ACAD_REACTORS
330
112
102
}
330
10C
100
AcDbEntity
  8
0
100
AcDbLine
 10
-35.0
 20
20.0
 30
0.0
 11
-32.75944236602587
 21
21.71924034067061
 31
0.0
  0
LINE
  5
110
102
{ACAD_REACTORS
330
112
102
}
330
10C
100
AcDbEntity
  8
0
100
AcDbLine
 10
-33.28075965932943
 20
22.24055763397416
 30
0.0
 11
-35.0
 21
20.0
 31
0.0
  0
LINE
  5
111
102
{ACAD_REACTORS
330
112
102
}
330
10C
100
AcDbEntity
  8
0
100
AcDbLine
 10
-32.75944236602587
 20
21.71924034067061
 30
0.0
 11
-33.28075965932943
 21
22.24055763397416
 31
0.0
  0
HATCH
  5
112
330
10C
100
AcDbEntity
  8
Schraffur
 62
     7
100
AcDbHatch
 10
0.0
 20
0.0
 30
0.0
210
0.0
220
0.0
230
1.0
  2
SOLID
 70
     1
 71
     1
 91
        1
 92
        1
 93
        3
 72
     1
 10
-35.0
 20
20.0
 11
-32.75944236602587
 21
21.71924034067061
 72
     1
 10
-32.75944236602587
 20
21.71924034067061
 11
-33.28075965932943
 21
22.24055763397416
 72
     1
 10
-33.28075965932943
 20
22.24055763397416
 11
-35.0
 21
20.0
 97
        3
330
10F
330
111
330
110
 75
     0
 76
     1
 98
        1
 10
0.0
 20
0.0
  0
LINE
  5
113
102
{ACAD_REACTORS
330
116
102
}
330
10C
100
AcDbEntity
  8
0
100
AcDbLine
 10
-20.00000000000003
 20
20.00000000000003
 30
0.0
 11
-17.7594423660259
 21
21.71924034067057
 31
0.0
  0
LINE
  5
114
102
{ACAD_REACTORS
330
116
102
}
330
10C
100
AcDbEntity
  8
0
100
AcDbLine
 10
-18.28075965932939
 20
22.24055763397406
 30
0.0
 11
-20.00000000000003
 21
20.00000000000003
 31
0.0
  0
LINE
  5
115
102
{ACAD_REACTORS
330
116
102
}
330
10C
100
AcDbEntity
  8
0
100
AcDbLine
 10
-17.7594423660259
 20
21.71924034067057
 30
0.0
 11
-18.28075965932939
 21
22.24055763397406
 31
0.0
  0
HATCH
  5
116
330
10C
100
AcDbEntity
  8
Schraffur
 62
     7
100
AcDbHatch
 10
0.0
 20
0.0
 30
0.0
210
0.0
220
0.0
230
1.0
  2
SOLID
 70
     1
 71
     1
 91
        1
 92
        1
 93
        3
 72
     1
 10
-20.00000000000003
 20
20.00000000000003
 11
-17.7594423660259
 21
21.71924034067057
 72
     1
 10
-17.7594423660259
 20
21.71924034067057
 11
-18.28075965932939
 21
22.24055763397406
 72
     1
 10
-18.28075965932939
 20
22.24055763397406
 11
-20.00000000000003
 21
20.00000000000003
 97
        3
330
113
330
115
330
114
 75
     0
 76
     1
 98
        1
 10
0.0
 20
0.0
  0
LINE
  5
117
330
10C
100
AcDbEntity
  8
Skizziergeometrie(ISO)
100
AcDbLine
 10
-39.89999999999998
 20
20.0
 30
0.0
 11
-35.0
 21
20.0
 31
0.0
  0
LINE
  5
118
330
10C
100
AcDbEntity
  8
Skizziergeometrie(ISO)
100
AcDbLine
 10
-35.0
 20
20.0
 30
0.0
 11
-34.99999999999996
 21
15.09999999999998
 31
0.0
  0
LINE
  5
119
330
10C
100
AcDbEntity
  8
Skizziergeometrie(ISO)
100
AcDbLine
 10
-20.00000000000003
 20
20.00000000000003
 30
0.0
 11
-15.10000000000005
 21
20.00000000000003
 31
0.0
  0
LINE
  5
11A
330
10C
100
AcDbEntity
  8
Skizziergeometrie(ISO)
100
AcDbLine
 10
-20.00000000000003
 20
20.00000000000003
 30
0.0
 11
-20.00000000000003
 21
24.90000000000002
 31
0.0
  0
LINE
  5
11B
330
10C
100
AcDbEntity
  8
Skizziergeometrie(ISO)
100
AcDbLine
 10
-35.0
 20
20.0
 30
0.0
 11
-31.28768939877062
 21
23.71231060122938
 31
0.0
  0
LINE
  5
11C
330
10C
100
AcDbEntity
  8
Skizziergeometrie(ISO)
100
AcDbLine
 10
-31.28768939877062
 20
23.71231060122938
 30
0.0
 11
-26.3876893987706
 21
23.71231060122938
 31
0.0
  0
LINE
  5
11D
330
10C
100
AcDbEntity
  8
Skizziergeometrie(ISO)
100
AcDbLine
 10
-35.0
 20
20.0
 30
0.0
 11
-33.28075965932943
 21
22.24055763397416
 31
0.0
  0
LINE
  5
11E
330
10C
100
AcDbEntity
  8
Skizziergeometrie(ISO)
100
AcDbLine
 10
-33.28075965932943
 20
22.24055763397416
 30
0.0
 11
-32.75944236602587
 21
21.71924034067061
 31
0.0
  0
LINE
  5
11F
330
10C
100
AcDbEntity
  8
Skizziergeometrie(ISO)
100
AcDbLine
 10
-32.75944236602587
 20
21.71924034067061
 30
0.0
 11
-35.0
 21
20.0
 31
0.0
  0
LINE
  5
120
330
10C
100
AcDbEntity
  8
Skizziergeometrie(ISO)
100
AcDbLine
 10
-31.28768939877062
 20
23.71231060122938
 30
0.0
 11
-31.28768939877062
 21
28.61231060122936
 31
0.0
  0
LINE
  5
121
330
10C
100
AcDbEntity
  8
Skizziergeometrie(ISO)
100
AcDbLine
 10
-18.02010101267761
 20
21.97989898732235
 30
0.0
 11
-16.28768939877059
 21
23.71231060122938
 31
0.0
  0
LINE
  5
122
330
10C
100
AcDbEntity
  8
Skizziergeometrie(ISO)
100
AcDbLine
 10
-16.28768939877059
 20
23.71231060122938
 30
0.0
 11
-11.3876893987706
 21
23.71231060122938
 31
0.0
  0
LINE
  5
123
330
10C
100
AcDbEntity
  8
Skizziergeometrie(ISO)
100
AcDbLine
 10
-20.00000000000003
 20
20.00000000000003
 30
0.0
 11
-18.28075965932939
 21
22.24055763397406
 31
0.0
  0
LINE
  5
124
330
10C
100
AcDbEntity
  8
Skizziergeometrie(ISO)
100
AcDbLine
 10
-18.28075965932939
 20
22.24055763397406
 30
0.0
 11
-17.7594423660259
 21
21.71924034067057
 31
0.0
  0
LINE
  5
125
330
10C
100
AcDbEntity
  8
Skizziergeometrie(ISO)
100
AcDbLine
 10
-17.7594423660259
 20
21.71924034067057
 30
0.0
 11
-20.00000000000003
 21
20.00000000000003
 31
0.0
  0
LINE
  5
126
330
10C
100
AcDbEntity
  8
Skizziergeometrie(ISO)
100
AcDbLine
 10
-16.28768939877059
 20
23.71231060122938
 30
0.0
 11
-16.28768939877059
 21
28.61231060122936
 31
0.0
  0
LINE
  5
127
330
10C
100
AcDbEntity
  8
Skizziergeometrie(ISO)
100
AcDbLine
 10
-49.99999999999999
 20
35.0
 30
0.0
 11
0.0
 21
35.0
 31
0.0
  0
LINE
  5
128
330
10C
100
AcDbEntity
  8
Skizziergeometrie(ISO)
100
AcDbLine
 10
0.0
 20
35.0
 30
0.0
 11
0.0
 21
0.0
 31
0.0
  0
LINE
  5
129
330
10C
100
AcDbEntity
  8
Skizziergeometrie(ISO)
100
AcDbLine
 10
0.0
 20
0.0
 30
0.0
 11
-49.99999999999999
 21
0.0
 31
0.0
  0
LINE
  5
12A
330
10C
100
AcDbEntity
  8
Skizziergeometrie(ISO)
100
AcDbLine
 10
-49.99999999999999
 20
0.0
 30
0.0
 11
-49.99999999999999
 21
35.0
 31
0.0
  0
MTEXT
  5
12B
102
{ACAD_XDICTIONARY
360
C0B
102
}
330
10C
100
AcDbEntity
  8
Symbole(ISO)
 62
     7
100
AcDbMText
 10
-24.97893135154584
 20
10.23779293592927
 30
0.0
 40
3.499999940395355
 41
49.9873458157533
 71
     5
 72
     1
  1
Werkst\U+00FCckkanten\Pnach ISO 13715
  7
TC 3_5 mm-ISOCPEUR
 73
     2
 44
1.068348169326782
1001
ACAD
1000
MTEXTBEGIN
1070
    73
1070
     2
1070
    44
1040
1.068348169326782
1070
    74
1070
     0
1000
MTEXTEND
  0
ATTDEF
  5
12C
330
10C
100
AcDbEntity
  8
Symbole(ISO)
 62
     7
100
AcDbText
 10
-30.16177492853139
 20
24.5808246293851
 30
0.0
 40
2.5
  1
 
 41
0.899999976158142
  7
TC 2_5 mm-ISOCPEUR
 11
-30.16177492853139
 21
25.8308246293851
 31
0.0
100
AcDbAttributeDefinition
  3
AK unten
  2
AK_unten
 70
     0
 74
     2
  0
ATTDEF
  5
12D
330
10C
100
AcDbEntity
  8
Symbole(ISO)
 62
     7
100
AcDbText
 10
-30.17792390794348
 20
27.58528770975683
 30
0.0
 40
2.5
  1
 
 41
0.899999976158142
  7
TC 2_5 mm-ISOCPEUR
 11
-30.17792390794348
 21
28.83528770975683
 31
0.0
100
AcDbAttributeDefinition
  3
AK oben
  2
AK_oben
 70
     0
 74
     2
  0
ATTDEF
  5
12E
330
10C
100
AcDbEntity
  8
Symbole(ISO)
 62
     7
100
AcDbText
 10
-15.11922386270676
 20
24.61259748150297
 30
0.0
 40
2.5
  1
 
 41
0.899999976158142
  7
TC 2_5 mm-ISOCPEUR
 11
-15.11922386270676
 21
25.86259748150297
 31
0.0
100
AcDbAttributeDefinition
  3
IK unten
  2
IK_unten
 70
     0
 74
     2
  0
ATTDEF
  5
12F
330
10C
100
AcDbEntity
  8
Symbole(ISO)
 62
     7
100
AcDbText
 10
-15.14487582203273
 20
27.61806754523864
 30
0.0
 40
2.5
  1
 
 41
0.899999976158142
  7
TC 2_5 mm-ISOCPEUR
 11
-15.14487582203273
 21
28.86806754523864
 31
0.0
100
AcDbAttributeDefinition
  3
IK oben
  2
IK_oben
 70
     0
 74
     2
  0
ENDBLK
  5
10E
330
10C
100
AcDbEntity
  8
0
100
AcDbBlockEnd
  0
BLOCK
  5
131
330
130
100
AcDbEntity
  8
0
100
AcDbBlockBegin
  2
EN 12329 (Chromatierung)
 70
     0
 10
0.0
 20
0.0
 30
0.0
  3
EN 12329 (Chromatierung)
  1

  0
LINE
  5
133
330
130
100
AcDbEntity
  8
Skizziergeometrie(ISO)
100
AcDbLine
 10
0.0
 20
0.0
 30
0.0
 11
-50.0
 21
0.0
 31
0.0
  0
LINE
  5
134
330
130
100
AcDbEntity
  8
Skizziergeometrie(ISO)
100
AcDbLine
 10
-50.0
 20
0.0
 30
0.0
 11
-50.0
 21
15.0
 31
0.0
  0
LINE
  5
135
330
130
100
AcDbEntity
  8
Skizziergeometrie(ISO)
100
AcDbLine
 10
-50.0
 20
15.0
 30
0.0
 11
0.0
 21
15.00000000000003
 31
0.0
  0
LINE
  5
136
330
130
100
AcDbEntity
  8
Skizziergeometrie(ISO)
100
AcDbLine
 10
0.0
 20
15.00000000000003
 30
0.0
 11
0.0
 21
0.0
 31
0.0
  0
MTEXT
  5
137
330
130
100
AcDbEntity
  8
Symbole(ISO)
 62
     7
100
AcDbMText
 10
-24.98833105758937
 20
7.490142772208123
 30
0.0
 40
2.5
 41
49.83545872181219
 71
     5
 72
     1
  1
Verzinkt FE / ZN / C\PEN 12329\P(gelb chromatiert)
  7
TC 2_5 mm-ISOCPEUR
 73
     2
 44
1.068348169326782
1001
ACAD
1000
MTEXTBEGIN
1070
    73
1070
     2
1070
    44
1040
1.068348169326782
1070
    74
1070
     0
1000
MTEXTEND
  0
ENDBLK
  5
132
330
130
100
AcDbEntity
  8
0
100
AcDbBlockEnd
  0
BLOCK
  5
139
330
138
100
AcDbEntity
  8
0
100
AcDbBlockBegin
  2
ISO 2768 (zul. Abweichung)
 70
     2
 10
0.0
 20
0.0
 30
0.0
  3
ISO 2768 (zul. Abweichung)
  1

  0
LINE
  5
13B
330
138
100
AcDbEntity
  8
Skizziergeometrie(ISO)
100
AcDbLine
 10
-26.0
 20
0.0
 30
0.0
 11
0.0
 21
0.0
 31
0.0
  0
LINE
  5
13C
330
138
100
AcDbEntity
  8
Skizziergeometrie(ISO)
100
AcDbLine
 10
0.0
 20
0.0
 30
0.0
 11
0.0
 21
17.0
 31
0.0
  0
LINE
  5
13D
330
138
100
AcDbEntity
  8
Skizziergeometrie(ISO)
100
AcDbLine
 10
0.0
 20
17.0
 30
0.0
 11
-26.0
 21
17.0
 31
0.0
  0
LINE
  5
13E
330
138
100
AcDbEntity
  8
Skizziergeometrie(ISO)
100
AcDbLine
 10
-26.0
 20
17.0
 30
0.0
 11
-26.0
 21
0.0
 31
0.0
  0
MTEXT
  5
13F
330
138
100
AcDbEntity
  8
Symbole(ISO)
 62
     7
100
AcDbMText
 10
-7.994454197588593
 20
5.526470854171373
 30
0.0
 40
2.5
 41
17.99309312940538
 71
     6
 72
     1
  1
ISO 2768-
  7
TC 2_5 mm-ISOCPEUR
 73
     1
 44
1.0
1001
ACAD
1000
MTEXTBEGIN
1070
    73
1070
     1
1070
    44
1040
1.0
1070
    74
1070
     0
1000
MTEXTEND
  0
ATTDEF
  5
140
330
138
100
AcDbEntity
  8
Symbole(ISO)
 62
     7
100
AcDbText
 10
-7.924832568762529
 20
4.240604076340716
 30
0.0
 40
2.5
  1
 
 41
0.899999976158142
  7
TC 2_5 mm-ISOCPEUR
 11
-7.924832568762529
 21
5.490604076340716
 31
0.0
100
AcDbAttributeDefinition
  3
Grad
  2
Grad
 70
     0
 74
     2
  0
ENDBLK
  5
13A
330
138
100
AcDbEntity
  8
0
100
AcDbBlockEnd
  0
BLOCK
  5
142
330
141
100
AcDbEntity
  8
0
100
AcDbBlockBegin
  2
DIN ISO 1302 (Oberflächen)
 70
     0
 10
0.0
 20
0.0
 30
0.0
  3
DIN ISO 1302 (Oberflächen)
  1

  0
LINE
  5
144
330
141
100
AcDbEntity
  8
Skizziergeometrie(ISO)
100
AcDbLine
 10
-18.19999999999999
 20
0.0
 30
0.0
 11
0.0
 21
0.0
 31
0.0
  0
LINE
  5
145
330
141
100
AcDbEntity
  8
Skizziergeometrie(ISO)
100
AcDbLine
 10
0.0
 20
0.0
 30
0.0
 11
0.0
 21
17.0
 31
0.0
  0
LINE
  5
146
330
141
100
AcDbEntity
  8
Skizziergeometrie(ISO)
100
AcDbLine
 10
0.0
 20
17.0
 30
0.0
 11
-18.2
 21
17.0
 31
0.0
  0
LINE
  5
147
330
141
100
AcDbEntity
  8
Skizziergeometrie(ISO)
100
AcDbLine
 10
-18.2
 20
17.0
 30
0.0
 11
-18.19999999999999
 21
0.0
 31
0.0
  0
MTEXT
  5
148
330
141
100
AcDbEntity
  8
Symbole(ISO)
 62
     7
100
AcDbMText
 10
-9.137586403397849
 20
5.561325836084813
 30
0.0
 40
2.5
 41
18.21623868792871
 71
     5
 72
     1
  1
DIN ISO 1302
  7
TC 2_5 mm-ISOCPEUR
 73
     1
 44
1.0
1001
ACAD
1000
MTEXTBEGIN
1070
    73
1070
     1
1070
    44
1040
1.0
1070
    74
1070
     0
1000
MTEXTEND
  0
ENDBLK
  5
143
330
141
100
AcDbEntity
  8
0
100
AcDbBlockEnd
  0
BLOCK
  5
14A
330
149
100
AcDbEntity
  8
0
100
AcDbBlockBegin
  2
Ränder Ilme Rahmen A4 quer
 70
     0
 10
0.0
 20
0.0
 30
0.0
  3
Ränder Ilme Rahmen A4 quer
  1

  0
LINE
  5
14C
330
149
100
AcDbEntity
  8
Skizziergeometrie(ISO)
100
AcDbLine
 10
9.999999999999982
 20
9.999999999999952
 30
0.0
 11
10.00000000000001
 21
190.0
 31
0.0
  0
LINE
  5
14D
330
149
100
AcDbEntity
  8
Skizziergeometrie(ISO)
100
AcDbLine
 10
10.00000000000001
 20
190.0
 30
0.0
 11
287.0
 21
190.0
 31
0.0
  0
LINE
  5
14E
330
149
100
AcDbEntity
  8
Skizziergeometrie(ISO)
100
AcDbLine
 10
9.999999999999982
 20
9.999999999999952
 30
0.0
 11
287.0
 21
10.00000000000003
 31
0.0
  0
LINE
  5
14F
330
149
100
AcDbEntity
  8
Skizziergeometrie(ISO)
100
AcDbLine
 10
148.5
 20
210.0
 30
0.0
 11
148.5
 21
196.0
 31
0.0
  0
LINE
  5
150
330
149
100
AcDbEntity
  8
Skizziergeometrie(ISO)
100
AcDbLine
 10
287.0
 20
190.0
 30
0.0
 11
287.0
 21
10.00000000000003
 31
0.0
  0
MTEXT
  5
151
330
149
100
AcDbEntity
  8
Symbole(ISO)
 62
     7
100
AcDbMText
 10
148.5
 20
196.0
 30
0.0
 40
3.499999940395355
 41
0.0
 71
     2
 72
     1
  1
\fISOCPEUR|b0|i0;\H3.5000;    Diritti riservati     All rights reseved
  7
TC 2_5 mm
 73
     1
 44
1.0
1001
ACAD
1000
MTEXTBEGIN
1070
    73
1070
     1
1070
    44
1040
1.0
1070
    74
1070
     0
1000
MTEXTEND
  0
ENDBLK
  5
14B
330
149
100
AcDbEntity
  8
0
100
AcDbBlockEnd
  0
BLOCK
  5
155
330
154
100
AcDbEntity
  8
0
100
AcDbBlockBegin
  2
Schriftfelder Ilme
 70
     2
 10
0.0
 20
0.0
 30
0.0
  3
Schriftfelder Ilme
  1

  0
ARC
  5
157
102
{ACAD_REACTORS
330
15B
102
}
330
154
100
AcDbEntity
  8
0
100
AcDbCircle
 10
184.655189950303
 20
19.15390948356282
 30
10.0
 40
0.3333333333333996
100
AcDbArc
 50
0.0
 51
180.0
  0
LINE
  5
158
102
{ACAD_REACTORS
330
15B
102
}
330
154
100
AcDbEntity
  8
0
100
AcDbLine
 10
184.3218566169696
 20
15.84737070168959
 30
10.0
 11
184.3218566169696
 21
19.15390948356282
 31
10.0
  0
ARC
  5
159
102
{ACAD_REACTORS
330
15B
102
}
330
154
100
AcDbEntity
  8
0
100
AcDbCircle
 10
184.655189950303
 20
15.84737070168959
 30
10.0
 40
0.3333333333333997
100
AcDbArc
 50
180.0
 51
0.0
  0
LINE
  5
15A
102
{ACAD_REACTORS
330
15B
102
}
330
154
100
AcDbEntity
  8
0
100
AcDbLine
 10
184.9885232836365
 20
19.15390948356282
 30
10.0
 11
184.9885232836365
 21
15.84737070168959
 31
10.0
  0
HATCH
  5
15B
330
154
100
AcDbEntity
  8
Schraffur
 62
     7
100
AcDbHatch
 10
0.0
 20
0.0
 30
0.0
210
0.0
220
0.0
230
1.0
  2
SOLID
 70
     1
 71
     1
 91
        1
 92
        1
 93
        4
 72
     2
 10
184.655189950303
 20
19.15390948356282
 40
0.3333333333333996
 50
0.0
 51
180.0
 73
     1
 72
     1
 10
184.3218566169696
 20
19.15390948356282
 11
184.3218566169696
 21
15.84737070168959
 72
     2
 10
184.655189950303
 20
15.84737070168959
 40
0.3333333333333997
 50
180.0
 51
360.0
 73
     1
 72
     1
 10
184.9885232836365
 20
15.84737070168959
 11
184.9885232836365
 21
19.15390948356282
 97
        4
330
157
330
158
330
159
330
15A
 75
     0
 76
     1
 98
        1
 10
0.0
 20
0.0
  0
LINE
  5
15C
102
{ACAD_REACTORS
330
163
102
}
330
154
100
AcDbEntity
  8
0
100
AcDbLine
 10
188.4894939320861
 20
14.02010125116808
 30
0.0
 11
186.3218576257727
 21
15.27066065865696
 31
0.0
  0
ARC
  5
15D
102
{ACAD_REACTORS
330
163
102
}
330
154
100
AcDbEntity
  8
0
100
AcDbCircle
 10
188.3229197809228
 20
13.73137272248517
 30
0.0
 40
0.333333333333396
100
AcDbArc
 50
240.0183606311473
 51
60.01836063114733
  0
LINE
  5
15E
102
{ACAD_REACTORS
330
163
102
}
330
154
100
AcDbEntity
  8
0
100
AcDbLine
 10
185.9887104250881
 20
14.69320296572853
 30
0.0
 11
188.1563456297596
 21
13.44264419380229
 31
0.0
  0
ARC
  5
15F
102
{ACAD_REACTORS
330
163
102
}
330
154
100
AcDbEntity
  8
0
100
AcDbCircle
 10
186.3218598278342
 20
15.27066193048824
 30
0.0
 40
0.6666688687282916
100
AcDbArc
 50
180.0
 51
240.0183606311454
  0
LINE
  5
160
102
{ACAD_REACTORS
330
163
102
}
330
154
100
AcDbEntity
  8
0
100
AcDbLine
 10
185.6551909591059
 20
19.94397836659928
 30
0.0
 11
185.6551909591059
 21
15.27066193048824
 31
0.0
  0
ARC
  5
161
102
{ACAD_REACTORS
330
163
102
}
330
154
100
AcDbEntity
  8
0
100
AcDbCircle
 10
185.9885242924393
 20
19.94397836659928
 30
0.0
 40
0.333333333333396
100
AcDbArc
 50
0.0
 51
180.0
  0
LINE
  5
162
102
{ACAD_REACTORS
330
163
102
}
330
154
100
AcDbEntity
  8
0
100
AcDbLine
 10
186.3218576257727
 20
15.27066065865696
 30
0.0
 11
186.3218576257727
 21
19.94397836659928
 31
0.0
  0
HATCH
  5
163
330
154
100
AcDbEntity
  8
Schraffur
 62
     7
100
AcDbHatch
 10
0.0
 20
0.0
 30
0.0
210
0.0
220
0.0
230
1.0
  2
SOLID
 70
     1
 71
     1
 91
        1
 92
        1
 93
        7
 72
     1
 10
188.4894939320861
 20
14.02010125116808
 11
186.3218576257727
 21
15.27066065865696
 72
     1
 10
186.3218576257727
 20
15.27066065865696
 11
186.3218576257727
 21
19.94397836659928
 72
     2
 10
185.9885242924393
 20
19.94397836659928
 40
0.333333333333396
 50
0.0
 51
180.0
 73
     1
 72
     1
 10
185.6551909591059
 20
19.94397836659928
 11
185.6551909591059
 21
15.27066193048824
 72
     2
 10
186.3218598278342
 20
15.27066193048824
 40
0.6666688687282916
 50
180.0
 51
240.0183606311454
 73
     1
 72
     1
 10
185.9887104250881
 20
14.69320296572853
 11
188.1563456297596
 21
13.44264419380229
 72
     2
 10
188.3229197809228
 20
13.73137272248517
 40
0.333333333333396
 50
240.0183606311473
 51
420.0183606311473
 73
     1
 97
        7
330
15C
330
162
330
161
330
160
330
15F
330
15E
330
15D
 75
     0
 76
     1
 98
        1
 10
0.0
 20
0.0
  0
LINE
  5
164
102
{ACAD_REACTORS
330
171
102
}
330
154
100
AcDbEntity
  8
0
100
AcDbLine
 10
188.655189950303
 20
18.85482345606895
 30
0.0
 11
187.4829623801859
 21
20.88518116554469
 31
0.0
  0
LINE
  5
165
102
{ACAD_REACTORS
330
171
102
}
330
154
100
AcDbEntity
  8
0
100
AcDbLine
 10
189.82741752042
 20
20.88518116554469
 30
0.0
 11
188.655189950303
 21
18.85482345606895
 31
0.0
  0
ARC
  5
166
102
{ACAD_REACTORS
330
171
102
}
330
154
100
AcDbEntity
  8
0
100
AcDbCircle
 10
190.0568849915682
 20
20.75269805930704
 30
0.0
 40
0.2649662124752865
100
AcDbArc
 50
0.0
 51
149.9999999999939
  0
LINE
  5
167
102
{ACAD_REACTORS
330
171
102
}
330
154
100
AcDbEntity
  8
0
100
AcDbLine
 10
190.3218512040435
 20
14.28806850858179
 30
0.0
 11
190.3218512040435
 21
20.75269805930705
 31
0.0
  0
ARC
  5
168
102
{ACAD_REACTORS
330
171
102
}
330
154
100
AcDbEntity
  8
0
100
AcDbCircle
 10
189.98851787071
 20
14.28806850858179
 30
0.0
 40
0.3333333333334023
100
AcDbArc
 50
180.0
 51
0.0
  0
LINE
  5
169
102
{ACAD_REACTORS
330
171
102
}
330
154
100
AcDbEntity
  8
0
100
AcDbLine
 10
189.6551845373767
 20
19.25353601487275
 30
0.0
 11
189.6551845373766
 21
14.28806850858179
 31
0.0
  0
LINE
  5
16A
102
{ACAD_REACTORS
330
171
102
}
330
154
100
AcDbEntity
  8
0
100
AcDbLine
 10
188.7995275176003
 20
17.77149458276708
 30
0.0
 11
189.6551845373767
 21
19.25353601487275
 31
0.0
  0
ARC
  5
16B
102
{ACAD_REACTORS
330
171
102
}
330
154
100
AcDbEntity
  8
0
100
AcDbCircle
 10
188.655189950303
 20
17.85482791610036
 30
0.0
 40
0.1666666666665381
100
AcDbArc
 50
209.9999999999992
 51
330.0000000000008
  0
LINE
  5
16C
102
{ACAD_REACTORS
330
171
102
}
330
154
100
AcDbEntity
  8
0
100
AcDbLine
 10
187.6551953632293
 20
19.25353601487277
 30
0.0
 11
188.5108523830057
 21
17.77149458276708
 31
0.0
  0
LINE
  5
16D
102
{ACAD_REACTORS
330
171
102
}
330
154
100
AcDbEntity
  8
0
100
AcDbLine
 10
187.6551953632293
 20
15.84737070168959
 30
0.0
 11
187.6551953632293
 21
19.25353601487277
 31
0.0
  0
ARC
  5
16E
102
{ACAD_REACTORS
330
171
102
}
330
154
100
AcDbEntity
  8
0
100
AcDbCircle
 10
187.3218620298959
 20
15.84737070168959
 30
0.0
 40
0.333333333333396
100
AcDbArc
 50
180.0
 51
0.0
  0
LINE
  5
16F
102
{ACAD_REACTORS
330
171
102
}
330
154
100
AcDbEntity
  8
0
100
AcDbLine
 10
186.9885286965624
 20
20.75269805930705
 30
0.0
 11
186.9885286965624
 21
15.84737070168959
 31
0.0
  0
ARC
  5
170
102
{ACAD_REACTORS
330
171
102
}
330
154
100
AcDbEntity
  8
0
100
AcDbCircle
 10
187.2534949090378
 20
20.75269805930705
 30
0.0
 40
0.2649662124752854
100
AcDbArc
 50
29.9999999999981
 51
180.0
  0
HATCH
  5
171
330
154
100
AcDbEntity
  8
Schraffur
 62
     7
100
AcDbHatch
 10
0.0
 20
0.0
 30
0.0
210
0.0
220
0.0
230
1.0
  2
SOLID
 70
     1
 71
     1
 91
        1
 92
        1
 93
       13
 72
     1
 10
188.655189950303
 20
18.85482345606895
 11
187.4829623801859
 21
20.88518116554469
 72
     2
 10
187.2534949090378
 20
20.75269805930705
 40
0.2649662124752854
 50
29.9999999999981
 51
180.0
 73
     1
 72
     1
 10
186.9885286965624
 20
20.75269805930705
 11
186.9885286965624
 21
15.84737070168959
 72
     2
 10
187.3218620298959
 20
15.84737070168959
 40
0.333333333333396
 50
180.0
 51
360.0
 73
     1
 72
     1
 10
187.6551953632293
 20
15.84737070168959
 11
187.6551953632293
 21
19.25353601487277
 72
     1
 10
187.6551953632293
 20
19.25353601487277
 11
188.5108523830057
 21
17.77149458276708
 72
     2
 10
188.655189950303
 20
17.85482791610036
 40
0.1666666666665381
 50
209.9999999999992
 51
330.0000000000008
 73
     1
 72
     1
 10
188.7995275176003
 20
17.77149458276708
 11
189.6551845373767
 21
19.25353601487275
 72
     1
 10
189.6551845373767
 20
19.25353601487275
 11
189.6551845373766
 21
14.28806850858179
 72
     2
 10
189.98851787071
 20
14.28806850858179
 40
0.3333333333334023
 50
180.0
 51
360.0
 73
     1
 72
     1
 10
190.3218512040435
 20
14.28806850858179
 11
190.3218512040435
 21
20.75269805930705
 72
     2
 10
190.0568849915682
 20
20.75269805930704
 40
0.2649662124752865
 50
0.0
 51
149.9999999999939
 73
     1
 72
     1
 10
189.82741752042
 20
20.88518116554469
 11
188.655189950303
 21
18.85482345606894
 97
       13
330
164
330
170
330
16F
330
16E
330
16D
330
16C
330
16B
330
16A
330
169
330
168
330
167
330
166
330
165
 75
     0
 76
     1
 98
        1
 10
0.0
 20
0.0
  0
ARC
  5
172
102
{ACAD_REACTORS
330
180
102
}
330
154
100
AcDbEntity
  8
0
100
AcDbCircle
 10
192.6913083387628
 20
15.84737070168959
 30
10.0
 40
0.3333333333333919
100
AcDbArc
 50
299.9816393688529
 51
119.9816393688526
  0
LINE
  5
173
102
{ACAD_REACTORS
330
180
102
}
330
154
100
AcDbEntity
  8
0
100
AcDbLine
 10
191.6551889415001
 20
15.6344385114688
 30
10.0
 11
192.5247341875995
 21
16.13609923037247
 31
10.0
  0
LINE
  5
174
102
{ACAD_REACTORS
330
180
102
}
330
154
100
AcDbEntity
  8
0
100
AcDbLine
 10
191.6551889415001
 20
17.1673067592928
 30
10.0
 11
191.6551889415001
 21
15.6344385114688
 31
10.0
  0
LINE
  5
175
102
{ACAD_REACTORS
330
180
102
}
330
154
100
AcDbEntity
  8
0
100
AcDbLine
 10
192.6913083387628
 20
17.1673067592928
 30
10.0
 11
191.6551889415001
 21
17.1673067592928
 31
10.0
  0
ARC
  5
176
102
{ACAD_REACTORS
330
180
102
}
330
154
100
AcDbEntity
  8
0
100
AcDbCircle
 10
192.6913083387628
 20
17.5006400926262
 30
10.0
 40
0.333333333333396
100
AcDbArc
 50
270.0
 51
90.0
  0
LINE
  5
177
102
{ACAD_REACTORS
330
180
102
}
330
154
100
AcDbEntity
  8
0
100
AcDbLine
 10
191.6551889415001
 20
17.8339734259596
 30
10.0
 11
192.6913083387628
 21
17.8339734259596
 31
10.0
  0
LINE
  5
178
102
{ACAD_REACTORS
330
180
102
}
330
154
100
AcDbEntity
  8
0
100
AcDbLine
 10
191.6551889415001
 20
19.36684167378358
 30
10.0
 11
191.6551889415001
 21
17.8339734259596
 31
10.0
  0
LINE
  5
179
102
{ACAD_REACTORS
330
180
102
}
330
154
100
AcDbEntity
  8
0
100
AcDbLine
 10
192.5247341875995
 20
18.86518095487989
 30
10.0
 11
191.6551889415001
 21
19.36684167378358
 31
10.0
  0
ARC
  5
17A
102
{ACAD_REACTORS
330
180
102
}
330
154
100
AcDbEntity
  8
0
100
AcDbCircle
 10
192.6913083387628
 20
19.15390948356282
 30
10.0
 40
0.3333333333333963
100
AcDbArc
 50
240.0183606311407
 51
60.01835942372524
  0
LINE
  5
17B
102
{ACAD_REACTORS
330
180
102
}
330
154
100
AcDbEntity
  8
0
100
AcDbLine
 10
191.4884297593299
 20
20.23270689528218
 30
10.0
 11
192.857882489926
 21
19.44263801224573
 31
10.0
  0
ARC
  5
17C
102
{ACAD_REACTORS
330
180
102
}
330
154
100
AcDbEntity
  8
0
100
AcDbCircle
 10
191.3218556081666
 20
19.94397836659928
 30
10.0
 40
0.333333333333396
100
AcDbArc
 50
60.01836063114071
 51
180.0
  0
LINE
  5
17D
102
{ACAD_REACTORS
330
180
102
}
330
154
100
AcDbEntity
  8
0
100
AcDbLine
 10
190.9885222748332
 20
15.05730181865312
 30
10.0
 11
190.9885222748332
 21
19.94397836659928
 31
10.0
  0
ARC
  5
17E
102
{ACAD_REACTORS
330
180
102
}
330
154
100
AcDbEntity
  8
0
100
AcDbCircle
 10
191.3218556081666
 20
15.05730181865312
 30
10.0
 40
0.333333333333396
100
AcDbArc
 50
180.0
 51
299.9816393688593
  0
LINE
  5
17F
102
{ACAD_REACTORS
330
180
102
}
330
154
100
AcDbEntity
  8
0
100
AcDbLine
 10
192.857882489926
 20
15.55864217300668
 30
10.0
 11
191.4884297593299
 21
14.7685732899702
 31
10.0
  0
HATCH
  5
180
330
154
100
AcDbEntity
  8
Schraffur
 62
     7
100
AcDbHatch
 10
0.0
 20
0.0
 30
0.0
210
0.0
220
0.0
230
1.0
  2
SOLID
 70
     1
 71
     1
 91
        1
 92
        1
 93
       14
 72
     2
 10
192.6913083387628
 20
15.84737070168959
 40
0.3333333333333919
 50
299.9816393688529
 51
479.9816393688526
 73
     1
 72
     1
 10
192.5247341875995
 20
16.13609923037247
 11
191.6551889415001
 21
15.63443851146881
 72
     1
 10
191.6551889415001
 20
15.6344385114688
 11
191.6551889415001
 21
17.1673067592928
 72
     1
 10
191.6551889415001
 20
17.1673067592928
 11
192.6913083387628
 21
17.1673067592928
 72
     2
 10
192.6913083387628
 20
17.5006400926262
 40
0.333333333333396
 50
270.0
 51
450.0
 73
     1
 72
     1
 10
192.6913083387628
 20
17.8339734259596
 11
191.6551889415001
 21
17.8339734259596
 72
     1
 10
191.6551889415001
 20
17.8339734259596
 11
191.6551889415001
 21
19.36684167378358
 72
     1
 10
191.6551889415001
 20
19.36684167378358
 11
192.5247341875995
 21
18.86518095487989
 72
     2
 10
192.6913083387628
 20
19.15390948356282
 40
0.3333333333333963
 50
240.0183606311407
 51
420.0183594237252
 73
     1
 72
     1
 10
192.857882489926
 20
19.44263801224573
 11
191.4884297593299
 21
20.23270689528218
 72
     2
 10
191.3218556081666
 20
19.94397836659928
 40
0.333333333333396
 50
60.01836063114071
 51
180.0
 73
     1
 72
     1
 10
190.9885222748332
 20
19.94397836659928
 11
190.9885222748332
 21
15.05730181865312
 72
     2
 10
191.3218556081666
 20
15.05730181865312
 40
0.333333333333396
 50
180.0
 51
299.9816393688593
 73
     1
 72
     1
 10
191.4884297593299
 20
14.7685732899702
 11
192.857882489926
 21
15.55864217300668
 97
       14
330
172
330
173
330
174
330
175
330
176
330
177
330
178
330
179
330
17A
330
17B
330
17C
330
17D
330
17E
330
17F
 75
     0
 76
     1
 98
        1
 10
0.0
 20
0.0
  0
LINE
  5
181
330
154
100
AcDbEntity
  8
Skizziergeometrie(ISO)
100
AcDbLine
 10
19.98018995030303
 20
45.0006400926262
 30
0.0
 11
199.980189950303
 21
45.0006400926262
 31
0.0
  0
LINE
  5
182
330
154
100
AcDbEntity
  8
Skizziergeometrie(ISO)
100
AcDbLine
 10
19.98018995030303
 20
40.0006400926262
 30
0.0
 11
199.980189950303
 21
40.0006400926262
 31
0.0
  0
LINE
  5
183
330
154
100
AcDbEntity
  8
Skizziergeometrie(ISO)
100
AcDbLine
 10
19.98018995030303
 20
35.00064009262621
 30
0.0
 11
199.980189950303
 21
35.00064009262621
 31
0.0
  0
LINE
  5
184
330
154
100
AcDbEntity
  8
Skizziergeometrie(ISO)
100
AcDbLine
 10
19.98018995030303
 20
30.00064009262621
 30
0.0
 11
199.980189950303
 21
30.00064009262621
 31
0.0
  0
LINE
  5
185
330
154
100
AcDbEntity
  8
Skizziergeometrie(ISO)
100
AcDbLine
 10
19.98018995030303
 20
25.00064009262621
 30
0.0
 11
199.980189950303
 21
25.00064009262621
 31
0.0
  0
LINE
  5
186
330
154
100
AcDbEntity
  8
Skizziergeometrie(ISO)
100
AcDbLine
 10
19.98018995030303
 20
17.5006400926262
 30
0.0
 11
49.98018995030306
 21
17.5006400926262
 31
0.0
  0
LINE
  5
187
330
154
100
AcDbEntity
  8
Skizziergeometrie(ISO)
100
AcDbLine
 10
26.98018995030303
 20
45.0006400926262
 30
0.0
 11
26.98018995030303
 21
25.00064009262621
 31
0.0
  0
LINE
  5
188
330
154
100
AcDbEntity
  8
Skizziergeometrie(ISO)
100
AcDbLine
 10
44.98018995030303
 20
45.0006400926262
 30
0.0
 11
44.98018995030303
 21
25.00064009262621
 31
0.0
  0
LINE
  5
189
330
154
100
AcDbEntity
  8
Skizziergeometrie(ISO)
100
AcDbLine
 10
49.98018995030306
 20
10.0006400926262
 30
0.0
 11
49.98018995030306
 21
25.00064009262621
 31
0.0
  0
LINE
  5
18A
330
154
100
AcDbEntity
  8
Skizziergeometrie(ISO)
100
AcDbLine
 10
159.980189950303
 20
25.00064009262621
 30
0.0
 11
159.980189950303
 21
10.0006400926262
 31
0.0
  0
LINE
  5
18B
330
154
100
AcDbEntity
  8
Skizziergeometrie(ISO)
100
AcDbLine
 10
177.3301899503031
 20
25.0006400926262
 30
0.0
 11
177.3301899503031
 21
10.0006400926262
 31
0.0
  0
LINE
  5
18C
330
154
100
AcDbEntity
  8
Skizziergeometrie(ISO)
100
AcDbLine
 10
190.9885222748332
 20
15.05730181865312
 30
0.0
 11
190.9885222748332
 21
19.94397836659928
 31
0.0
  0
LINE
  5
18D
330
154
100
AcDbEntity
  8
Skizziergeometrie(ISO)
100
AcDbLine
 10
192.857882489926
 20
15.55864217300668
 30
0.0
 11
191.4884297593299
 21
14.7685732899702
 31
0.0
  0
LINE
  5
18E
330
154
100
AcDbEntity
  8
Skizziergeometrie(ISO)
100
AcDbLine
 10
191.6551889415001
 20
15.6344385114688
 30
0.0
 11
192.5247341875995
 21
16.13609923037247
 31
0.0
  0
LINE
  5
18F
330
154
100
AcDbEntity
  8
Skizziergeometrie(ISO)
100
AcDbLine
 10
191.6551889415001
 20
17.1673067592928
 30
0.0
 11
191.6551889415001
 21
15.6344385114688
 31
0.0
  0
LINE
  5
190
330
154
100
AcDbEntity
  8
Skizziergeometrie(ISO)
100
AcDbLine
 10
192.6913083387628
 20
17.1673067592928
 30
0.0
 11
191.6551889415001
 21
17.1673067592928
 31
0.0
  0
LINE
  5
191
330
154
100
AcDbEntity
  8
Skizziergeometrie(ISO)
100
AcDbLine
 10
191.6551889415001
 20
17.8339734259596
 30
0.0
 11
192.6913083387628
 21
17.8339734259596
 31
0.0
  0
LINE
  5
192
330
154
100
AcDbEntity
  8
Skizziergeometrie(ISO)
100
AcDbLine
 10
191.6551889415001
 20
19.36684167378358
 30
0.0
 11
191.6551889415001
 21
17.8339734259596
 31
0.0
  0
LINE
  5
193
330
154
100
AcDbEntity
  8
Skizziergeometrie(ISO)
100
AcDbLine
 10
192.5247341875995
 20
18.86518095487989
 30
0.0
 11
191.6551889415001
 21
19.36684167378358
 31
0.0
  0
LINE
  5
194
330
154
100
AcDbEntity
  8
Skizziergeometrie(ISO)
100
AcDbLine
 10
191.4884297593299
 20
20.23270689528218
 30
0.0
 11
192.857882489926
 21
19.44263801224573
 31
0.0
  0
LINE
  5
195
330
154
100
AcDbEntity
  8
Skizziergeometrie(ISO)
100
AcDbLine
 10
184.3218566169696
 20
15.84737070168959
 30
0.0
 11
184.3218566169696
 21
19.15390948356282
 31
0.0
  0
LINE
  5
196
330
154
100
AcDbEntity
  8
Skizziergeometrie(ISO)
100
AcDbLine
 10
184.9885232836365
 20
19.15390948356282
 30
0.0
 11
184.9885232836365
 21
15.84737070168959
 31
0.0
  0
LINE
  5
197
330
154
100
AcDbEntity
  8
Skizziergeometrie(ISO)
100
AcDbLine
 10
188.1563456297596
 20
13.44264419380229
 30
0.0
 11
185.9887104250881
 21
14.69320296572853
 31
0.0
  0
LINE
  5
198
330
154
100
AcDbEntity
  8
Skizziergeometrie(ISO)
100
AcDbLine
 10
186.3218576257727
 20
15.27066065865696
 30
0.0
 11
188.4894939320861
 21
14.02010125116808
 31
0.0
  0
LINE
  5
199
330
154
100
AcDbEntity
  8
Skizziergeometrie(ISO)
100
AcDbLine
 10
186.3218576257727
 20
19.94397836659928
 30
0.0
 11
186.3218576257727
 21
15.27066065865696
 31
0.0
  0
LINE
  5
19A
330
154
100
AcDbEntity
  8
Skizziergeometrie(ISO)
100
AcDbLine
 10
185.6551909591059
 20
15.27066193048824
 30
0.0
 11
185.6551909591059
 21
19.94397836659928
 31
0.0
  0
LINE
  5
19B
330
154
100
AcDbEntity
  8
Skizziergeometrie(ISO)
100
AcDbLine
 10
189.82741752042
 20
20.88518116554469
 30
0.0
 11
188.655189950303
 21
18.85482345606895
 31
0.0
  0
LINE
  5
19C
330
154
100
AcDbEntity
  8
Skizziergeometrie(ISO)
100
AcDbLine
 10
190.3218512040435
 20
14.28806850858179
 30
0.0
 11
190.3218512040435
 21
20.75269805930705
 31
0.0
  0
LINE
  5
19D
330
154
100
AcDbEntity
  8
Skizziergeometrie(ISO)
100
AcDbLine
 10
187.4829623801859
 20
20.88518116554469
 30
0.0
 11
188.655189950303
 21
18.85482345606895
 31
0.0
  0
LINE
  5
19E
330
154
100
AcDbEntity
  8
Skizziergeometrie(ISO)
100
AcDbLine
 10
186.9885286965624
 20
15.84737070168959
 30
0.0
 11
186.9885286965624
 21
20.75269805930705
 31
0.0
  0
LINE
  5
19F
330
154
100
AcDbEntity
  8
Skizziergeometrie(ISO)
100
AcDbLine
 10
188.655189950303
 20
12.50064009262539
 30
0.0
 11
180.2387546751623
 21
17.35627582828491
 31
0.0
  0
LINE
  5
1A0
330
154
100
AcDbEntity
  8
Skizziergeometrie(ISO)
100
AcDbLine
 10
197.0716252254436
 20
17.35627582828489
 30
0.0
 11
188.655189950303
 21
12.50064009262539
 31
0.0
  0
LINE
  5
1A1
330
154
100
AcDbEntity
  8
Skizziergeometrie(ISO)
100
AcDbLine
 10
188.655189950303
 20
22.50064009262702
 30
0.0
 11
197.0716252254436
 21
17.6450043569675
 31
0.0
  0
LINE
  5
1A2
330
154
100
AcDbEntity
  8
Skizziergeometrie(ISO)
100
AcDbLine
 10
180.2387546751623
 20
17.6450043569675
 30
0.0
 11
188.655189950303
 21
22.50064009262702
 31
0.0
  0
LINE
  5
1A3
330
154
100
AcDbEntity
  8
Skizziergeometrie(ISO)
100
AcDbLine
 10
187.6551953632293
 20
19.25353601487277
 30
0.0
 11
187.6551953632293
 21
15.84737070168959
 31
0.0
  0
LINE
  5
1A4
330
154
100
AcDbEntity
  8
Skizziergeometrie(ISO)
100
AcDbLine
 10
188.5108523830057
 20
17.77149458276708
 30
0.0
 11
187.6551953632293
 21
19.25353601487277
 31
0.0
  0
LINE
  5
1A5
330
154
100
AcDbEntity
  8
Skizziergeometrie(ISO)
100
AcDbLine
 10
189.6551845373767
 20
19.25353601487275
 30
0.0
 11
188.7995275176003
 21
17.77149458276708
 31
0.0
  0
LINE
  5
1A6
330
154
100
AcDbEntity
  8
Skizziergeometrie(ISO)
100
AcDbLine
 10
189.6551845373766
 20
14.28806850858179
 30
0.0
 11
189.6551845373767
 21
19.25353601487275
 31
0.0
  0
ARC
  5
1A7
330
154
100
AcDbEntity
  8
Skizziergeometrie(ISO)
100
AcDbCircle
 10
192.6913083387628
 20
15.84737070168959
 30
0.0
 40
0.3333333333333919
100
AcDbArc
 50
299.9816393688527
 51
119.98163936886
  0
ARC
  5
1A8
330
154
100
AcDbEntity
  8
Skizziergeometrie(ISO)
100
AcDbCircle
 10
192.6913083387628
 20
17.5006400926262
 30
0.0
 40
0.333333333333396
100
AcDbArc
 50
270.0
 51
90.0
  0
ARC
  5
1A9
330
154
100
AcDbEntity
  8
Skizziergeometrie(ISO)
100
AcDbCircle
 10
192.6913083387628
 20
19.15390948356282
 30
0.0
 40
0.3333333333333963
100
AcDbArc
 50
240.0183606311413
 51
60.01836063114108
  0
ARC
  5
1AA
330
154
100
AcDbEntity
  8
Skizziergeometrie(ISO)
100
AcDbCircle
 10
184.655189950303
 20
15.84737070168959
 30
0.0
 40
0.3333333333333997
100
AcDbArc
 50
180.0
 51
0.0
  0
ARC
  5
1AB
330
154
100
AcDbEntity
  8
Skizziergeometrie(ISO)
100
AcDbCircle
 10
184.655189950303
 20
19.15390948356282
 30
0.0
 40
0.3333333333333996
100
AcDbArc
 50
0.0
 51
180.0
  0
ARC
  5
1AC
330
154
100
AcDbEntity
  8
Skizziergeometrie(ISO)
100
AcDbCircle
 10
188.3229197809228
 20
13.73137272248517
 30
0.0
 40
0.333333333333396
100
AcDbArc
 50
240.0183606311468
 51
60.01836063114108
  0
ARC
  5
1AD
330
154
100
AcDbEntity
  8
Skizziergeometrie(ISO)
100
AcDbCircle
 10
185.9885242924393
 20
19.94397836659928
 30
0.0
 40
0.333333333333396
100
AcDbArc
 50
0.0
 51
180.0
  0
ARC
  5
1AE
330
154
100
AcDbEntity
  8
Skizziergeometrie(ISO)
100
AcDbCircle
 10
190.0568849915682
 20
20.75269805930704
 30
0.0
 40
0.2649662124752865
100
AcDbArc
 50
0.0
 51
149.9999999999956
  0
ARC
  5
1AF
330
154
100
AcDbEntity
  8
Skizziergeometrie(ISO)
100
AcDbCircle
 10
189.98851787071
 20
14.28806850858179
 30
0.0
 40
0.3333333333334023
100
AcDbArc
 50
180.0
 51
0.0
  0
ARC
  5
1B0
330
154
100
AcDbEntity
  8
Skizziergeometrie(ISO)
100
AcDbCircle
 10
187.3218620298959
 20
15.84737070168959
 30
0.0
 40
0.333333333333396
100
AcDbArc
 50
180.0
 51
0.0
  0
ARC
  5
1B1
330
154
100
AcDbEntity
  8
Skizziergeometrie(ISO)
100
AcDbCircle
 10
187.2534949090378
 20
20.75269805930705
 30
0.0
 40
0.2649662124752854
100
AcDbArc
 50
29.99999999999976
 51
180.0
  0
ARC
  5
1B2
330
154
100
AcDbEntity
  8
Skizziergeometrie(ISO)
100
AcDbCircle
 10
191.3218556081666
 20
15.05730181865312
 30
0.0
 40
0.333333333333396
100
AcDbArc
 50
180.0
 51
299.9816393688587
  0
ARC
  5
1B3
330
154
100
AcDbEntity
  8
Skizziergeometrie(ISO)
100
AcDbCircle
 10
191.3218556081666
 20
19.94397836659928
 30
0.0
 40
0.333333333333396
100
AcDbArc
 50
60.01836063114071
 51
180.0
  0
ARC
  5
1B4
330
154
100
AcDbEntity
  8
Skizziergeometrie(ISO)
100
AcDbCircle
 10
196.9883381498621
 20
17.5006400926262
 30
0.0
 40
0.1666666666665381
100
AcDbArc
 50
299.9816393688627
 51
60.01836063115012
  0
ARC
  5
1B5
330
154
100
AcDbEntity
  8
Skizziergeometrie(ISO)
100
AcDbCircle
 10
180.3220417507439
 20
17.5006400926262
 30
0.0
 40
0.1666666666665381
100
AcDbArc
 50
119.9816393688498
 51
240.0183606311497
  0
ARC
  5
1B6
330
154
100
AcDbEntity
  8
Skizziergeometrie(ISO)
100
AcDbCircle
 10
186.3218598278342
 20
15.27066193048824
 30
0.0
 40
0.6666688687282916
100
AcDbArc
 50
180.0
 51
240.0183606311453
  0
ARC
  5
1B7
330
154
100
AcDbEntity
  8
Skizziergeometrie(ISO)
100
AcDbCircle
 10
188.655189950303
 20
17.85482791610036
 30
0.0
 40
0.1666666666665381
100
AcDbArc
 50
209.9999999999999
 51
330.0000000000001
  0
LINE
  5
1B8
330
154
100
AcDbEntity
  8
Skizzierlinie(TC_020513_DIN)
100
AcDbLine
 10
20.98018995030303
 20
25.00064009262621
 30
0.0
 11
20.98018995030303
 21
17.5006400926262
 31
0.0
  0
LINE
  5
1B9
330
154
100
AcDbEntity
  8
Skizzierlinie(TC_020513_DIN)
100
AcDbLine
 10
20.98018995030303
 20
17.5006400926262
 30
0.0
 11
20.980189950303
 21
10.0006400926262
 31
0.0
  0
LINE
  5
1BA
330
154
100
AcDbEntity
  8
Skizzierlinie(TC_020513_DIN)
100
AcDbLine
 10
49.98018995030306
 20
25.00064009262621
 30
0.0
 11
29.98018995030301
 21
17.5006400926262
 31
0.0
  0
LINE
  5
1BB
330
154
100
AcDbEntity
  8
Skizzierlinie(TC_020513_DIN)
100
AcDbLine
 10
177.3301899503031
 20
25.0006400926262
 30
0.0
 11
159.980189950303
 21
20.0006400926262
 31
0.0
  0
LINE
  5
1BC
330
154
100
AcDbEntity
  8
Skizzierlinie(TC_020513_DIN)
100
AcDbLine
 10
159.980189950303
 20
20.0006400926262
 30
0.0
 11
177.3301899503031
 21
10.0006400926262
 31
0.0
  0
LINE
  5
1BD
330
154
100
AcDbEntity
  8
Skizziergeometrie(ISO)
100
AcDbLine
 10
19.98018995030303
 20
45.0006400926262
 30
0.0
 11
19.98018995030303
 21
10.0006400926262
 31
0.0
  0
LINE
  5
1BE
330
154
100
AcDbEntity
  8
Skizzierlinie(TC_020513_DIN)
100
AcDbLine
 10
50.98018995030301
 20
25.00064009262621
 30
0.0
 11
50.98018995030301
 21
17.5006400926262
 31
0.0
  0
LINE
  5
1BF
330
154
100
AcDbEntity
  8
Skizzierlinie(TC_020513_DIN)
100
AcDbLine
 10
50.98018995030301
 20
17.5006400926262
 30
0.0
 11
50.98018995030301
 21
10.0006400926262
 31
0.0
  0
MTEXT
  5
1C0
330
154
100
AcDbEntity
  8
Symbole(ISO)
 62
     7
100
AcDbMText
 10
20.98018995030303
 20
21.2506400926262
 30
0.0
 40
2.5
 41
8.997516465920178
 71
     4
 72
     1
  1
 Date
  7
TC 2_5 mm
 73
     1
 44
1.0
1001
ACAD
1000
MTEXTBEGIN
1070
    73
1070
     1
1070
    44
1040
1.0
1070
    74
1070
     0
1000
MTEXTEND
  0
MTEXT
  5
1C1
330
154
100
AcDbEntity
  8
Symbole(ISO)
 62
     7
100
AcDbMText
 10
20.980189950303
 20
13.7506400926262
 30
0.0
 40
2.5
 41
8.970966064125889
 71
     4
 72
     1
  1
 Sign.
  7
TC 2_5 mm
 73
     1
 44
1.0
1001
ACAD
1000
MTEXTBEGIN
1070
    73
1070
     1
1070
    44
1040
1.0
1070
    74
1070
     0
1000
MTEXTEND
  0
MTEXT
  5
1C2
330
154
100
AcDbEntity
  8
Symbole(ISO)
 62
     7
100
AcDbMText
 10
168.655189950303
 20
22.5006400926262
 30
0.0
 40
2.5
 41
17.34061856478945
 71
     5
 72
     1
  1
Scale
  7
TC 2_5 mm
 73
     1
 44
1.0
1001
ACAD
1000
MTEXTBEGIN
1070
    73
1070
     1
1070
    44
1040
1.0
1070
    74
1070
     0
1000
MTEXTEND
  0
MTEXT
  5
1C3
330
154
100
AcDbEntity
  8
Symbole(ISO)
 62
     7
100
AcDbMText
 10
39.98018995030301
 20
21.2506400926262
 30
0.0
 40
3.499999940395355
 41
20.95325017112982
 71
     5
 72
     1
  1
10.01.2007
  7
TC 3_5 mm
 73
     1
 44
1.0
1001
ACAD
1000
MTEXTBEGIN
1070
    73
1070
     1
1070
    44
1040
1.0
1070
    74
1070
     0
1000
MTEXTEND
  0
ATTDEF
  5
1C4
330
154
100
AcDbEntity
  8
Symbole(ISO)
 62
     7
100
AcDbText
 10
50.98018995030301
 20
11.75064006282388
 30
0.0
 40
4.000000059604644
  1
bulkhead housing with pegs and cover
  7
Kopie von TC 5 mm
 11
50.98018995030301
 21
13.7506400926262
 31
0.0
100
AcDbAttributeDefinition
  3
BEZEICHNUNG
  2
BEZEICHNUNG
 70
     0
 74
     2
  0
ATTDEF
  5
1C5
330
154
100
AcDbEntity
  8
Symbole(ISO)
 62
     7
100
AcDbText
 10
164.2856470919772
 20
12.5006400926262
 30
0.0
 40
5.0
  1
1:1
 41
0.899999976158142
  7
TC 5 mm
 72
     1
 11
168.655189950303
 21
15.0006400926262
 31
0.0
100
AcDbAttributeDefinition
  3
FirstViewScale
  2
FirstViewScale
 70
     0
 74
     2
  0
ATTDEF
  5
1C6
330
154
100
AcDbEntity
  8
Symbole(ISO)
 62
     7
100
AcDbText
 10
50.98018995030301
 20
19.25064006282388
 30
0.0
 40
4.000000059604644
  1
CHI 06 LCS
 41
1.199999928474426
  7
Kopie von TC 5 mm
 11
50.98018995030301
 21
21.2506400926262
 31
0.0
100
AcDbAttributeDefinition
  3
BAUTEILNUMMER
  2
BAUTEILNUMMER
 70
     0
 74
     2
  0
ENDBLK
  5
156
330
154
100
AcDbEntity
  8
0
100
AcDbBlockEnd
  0
BLOCK
  5
45C
330
456
100
AcDbEntity
  8
0
100
AcDbBlockBegin
  2
*D11
 70
     1
 10
0.0
 20
0.0
 30
0.0
  3
*D11
  1

  0
LINE
  5
4EE
330
456
100
AcDbEntity
  8
Bemaßungen(TC_020513_DIN)
  6
Continuous
 62
     7
370
    25
100
AcDbLine
 10
25.50016910212614
 20
135.5824165917361
 30
0.0
 11
23.33510559266493
 21
134.3324165917364
 31
0.0
  0
LINE
  5
4EF
330
456
100
AcDbEntity
  8
Bemaßungen(TC_020513_DIN)
  6
Continuous
 62
     7
370
    25
100
AcDbLine
 10
33.72741043807879
 20
140.3324165917354
 30
0.0
 11
49.41711748509115
 21
149.3908731788324
 31
0.0
  0
LINE
  5
4F0
330
456
100
AcDbEntity
  8
Bemaßungen(TC_020513_DIN)
  6
Continuous
 62
     7
370
    25
100
AcDbLine
 10
27.66523261158736
 20
136.8324165917359
 30
0.0
 11
31.56234692861757
 21
139.0824165917356
 31
0.0
  0
SOLID
  5
4F1
330
456
100
AcDbEntity
  8
Bemaßungen(TC_020513_DIN)
  6
Continuous
 62
     7
100
AcDbTrace
 10
25.29183576879284
 20
135.9432605099797
 30
0.0
 11
25.70850243545944
 21
135.2215726734926
 31
0.0
 12
27.66523261158736
 22
136.8324165917359
 32
0.0
 13
27.66523261158736
 23
136.8324165917359
 33
0.0
  0
SOLID
  5
4F2
330
456
100
AcDbEntity
  8
Bemaßungen(TC_020513_DIN)
  6
Continuous
 62
     7
100
AcDbTrace
 10
33.51907710474549
 20
140.693260509979
 30
0.0
 11
33.9357437714121
 21
139.9715726734919
 31
0.0
 12
31.56234692861757
 22
139.0824165917356
 32
0.0
 13
31.56234692861757
 23
139.0824165917356
 33
0.0
  0
MTEXT
  5
4F3
330
456
100
AcDbEntity
  8
Bemaßungen(TC_020513_DIN)
  6
Continuous
 62
     7
370
    25
100
AcDbMText
 10
37.32470295734
 20
148.3228619418163
 30
0.0
 40
3.5
 41
0.0
 71
     1
 72
     1
  1
\A1;\U+22054,5
  7
Aktuell-BSI
 11
0.866025403784485
 21
0.4999999999999195
 31
0.0
 73
     1
 44
1.0
1001
ACAD
1000
MTEXTBEGIN
1070
    73
1070
     1
1070
    44
1040
1.0
1070
    74
1070
     0
1000
MTEXTEND
  0
POINT
  5
4F4
330
456
100
AcDbEntity
  8
Defpoints
  6
Continuous
 62
     0
100
AcDbPoint
 10
31.56234692861757
 20
139.0824165917356
 30
0.0
  0
POINT
  5
4F5
330
456
100
AcDbEntity
  8
Defpoints
  6
Continuous
 62
     0
100
AcDbPoint
 10
27.66523261158736
 20
136.8324165917359
 30
0.0
  0
ENDBLK
  5
45D
330
456
100
AcDbEntity
  8
0
100
AcDbBlockEnd
  0
BLOCK
  5
502
330
4F7
100
AcDbEntity
  8
0
100
AcDbBlockBegin
  2
*D12
 70
     1
 10
0.0
 20
0.0
 30
0.0
  3
*D12
  1

  0
LINE
  5
5B2
330
4F7
100
AcDbEntity
  8
Bemaßungen(TC_020513_DIN)
  6
Continuous
 62
     7
370
    25
100
AcDbLine
 10
65.11378977010247
 20
129.9574165917358
 30
0.0
 11
76.1137897701025
 21
129.9574165917358
 31
0.0
  0
LINE
  5
5B3
330
4F7
100
AcDbEntity
  8
Bemaßungen(TC_020513_DIN)
  6
Continuous
 62
     7
370
    25
100
AcDbLine
 10
65.11378977010247
 20
75.95741659173589
 30
0.0
 11
76.11378977010248
 21
75.95741659173589
 31
0.0
  0
LINE
  5
5B4
330
4F7
100
AcDbEntity
  8
Bemaßungen(TC_020513_DIN)
  6
Continuous
 62
     7
370
    25
100
AcDbLine
 10
74.1137897701025
 20
127.4574165917359
 30
0.0
 11
74.11378977010248
 21
78.45741659173589
 31
0.0
  0
SOLID
  5
5B5
330
4F7
100
AcDbEntity
  8
Bemaßungen(TC_020513_DIN)
  6
Continuous
 62
     7
100
AcDbTrace
 10
73.69712310343583
 20
127.4574165917359
 30
0.0
 11
74.53045643676917
 21
127.4574165917359
 31
0.0
 12
74.1137897701025
 22
129.9574165917358
 32
0.0
 13
74.1137897701025
 23
129.9574165917358
 33
0.0
  0
SOLID
  5
5B6
330
4F7
100
AcDbEntity
  8
Bemaßungen(TC_020513_DIN)
  6
Continuous
 62
     7
100
AcDbTrace
 10
73.69712310343581
 20
78.45741659173589
 30
0.0
 11
74.53045643676915
 21
78.45741659173589
 31
0.0
 12
74.11378977010248
 22
75.95741659173589
 32
0.0
 13
74.11378977010248
 23
75.95741659173589
 33
0.0
  0
MTEXT
  5
5B7
330
4F7
100
AcDbEntity
  8
Bemaßungen(TC_020513_DIN)
  6
Continuous
 62
     7
370
    25
100
AcDbMText
 10
69.75410354909293
 20
100.4577576558559
 30
0.0
 40
3.5
 41
0.0
 71
     1
 72
     1
  1
\A1;54
  7
Aktuell-BSI
 11
0.0000000000000001
 21
1.0
 31
0.0
 73
     1
 44
1.0
1001
ACAD
1000
MTEXTBEGIN
1070
    73
1070
     1
1070
    44
1040
1.0
1070
    74
1070
     0
1000
MTEXTEND
  0
POINT
  5
5B8
330
4F7
100
AcDbEntity
  8
Defpoints
  6
Continuous
 62
     0
100
AcDbPoint
 10
64.11378977010247
 20
129.9574165917358
 30
0.0
  0
POINT
  5
5B9
330
4F7
100
AcDbEntity
  8
Defpoints
  6
Continuous
 62
     0
100
AcDbPoint
 10
64.11378977010247
 20
75.95741659173589
 30
0.0
  0
POINT
  5
5BA
330
4F7
100
AcDbEntity
  8
Defpoints
  6
Continuous
 62
     0
100
AcDbPoint
 10
74.11378977010248
 20
75.95741659173589
 30
0.0
  0
ENDBLK
  5
503
330
4F7
100
AcDbEntity
  8
0
100
AcDbBlockEnd
  0
BLOCK
  5
5C7
330
5BC
100
AcDbEntity
  8
0
100
AcDbBlockBegin
  2
*D13
 70
     1
 10
0.0
 20
0.0
 30
0.0
  3
*D13
  1

  0
LINE
  5
66D
330
5BC
100
AcDbEntity
  8
Bemaßungen(TC_020513_DIN)
  6
Continuous
 62
     7
370
    25
100
AcDbLine
 10
28.61378977010247
 20
137.9574165917359
 30
0.0
 11
17.61378977010249
 21
137.9574165917359
 31
0.0
  0
LINE
  5
66E
330
5BC
100
AcDbEntity
  8
Bemaßungen(TC_020513_DIN)
  6
Continuous
 62
     7
370
    25
100
AcDbLine
 10
28.61378977010247
 20
67.95741659173588
 30
0.0
 11
17.61378977010247
 21
67.95741659173588
 31
0.0
  0
LINE
  5
66F
330
5BC
100
AcDbEntity
  8
Bemaßungen(TC_020513_DIN)
  6
Continuous
 62
     7
370
    25
100
AcDbLine
 10
19.61378977010248
 20
135.4574165917359
 30
0.0
 11
19.61378977010247
 21
70.45741659173588
 31
0.0
  0
SOLID
  5
670
330
5BC
100
AcDbEntity
  8
Bemaßungen(TC_020513_DIN)
  6
Continuous
 62
     7
100
AcDbTrace
 10
19.19712310343582
 20
135.4574165917359
 30
0.0
 11
20.03045643676915
 21
135.4574165917359
 31
0.0
 12
19.61378977010249
 22
137.9574165917359
 32
0.0
 13
19.61378977010249
 23
137.9574165917359
 33
0.0
  0
SOLID
  5
671
330
5BC
100
AcDbEntity
  8
Bemaßungen(TC_020513_DIN)
  6
Continuous
 62
     7
100
AcDbTrace
 10
19.1971231034358
 20
70.45741659173588
 30
0.0
 11
20.03045643676914
 21
70.45741659173588
 31
0.0
 12
19.61378977010247
 22
67.95741659173588
 32
0.0
 13
19.61378977010247
 23
67.95741659173588
 33
0.0
  0
MTEXT
  5
672
330
5BC
100
AcDbEntity
  8
Bemaßungen(TC_020513_DIN)
  6
Continuous
 62
     7
370
    25
100
AcDbMText
 10
15.23977885605062
 20
100.470888624478
 30
0.0
 40
3.5
 41
0.0
 71
     1
 72
     1
  1
\A1;70
  7
Aktuell-BSI
 11
0.0000000000000001
 21
1.0
 31
0.0
 73
     1
 44
1.0
1001
ACAD
1000
MTEXTBEGIN
1070
    73
1070
     1
1070
    44
1040
1.0
1070
    74
1070
     0
1000
MTEXTEND
  0
POINT
  5
673
330
5BC
100
AcDbEntity
  8
Defpoints
  6
Continuous
 62
     0
100
AcDbPoint
 10
29.61378977010247
 20
137.9574165917359
 30
0.0
  0
POINT
  5
674
330
5BC
100
AcDbEntity
  8
Defpoints
  6
Continuous
 62
     0
100
AcDbPoint
 10
29.61378977010247
 20
67.95741659173588
 30
0.0
  0
POINT
  5
675
330
5BC
100
AcDbEntity
  8
Defpoints
  6
Continuous
 62
     0
100
AcDbPoint
 10
19.61378977010247
 20
67.95741659173588
 30
0.0
  0
ENDBLK
  5
5C8
330
5BC
100
AcDbEntity
  8
0
100
AcDbBlockEnd
  0
BLOCK
  5
682
330
677
100
AcDbEntity
  8
0
100
AcDbBlockBegin
  2
*D14
 70
     1
 10
0.0
 20
0.0
 30
0.0
  3
*D14
  1

  0
LINE
  5
732
330
677
100
AcDbEntity
  8
Bemaßungen(TC_020513_DIN)
  6
Continuous
 62
     7
370
    25
100
AcDbLine
 10
29.61378977010247
 20
66.95741659173588
 30
0.0
 11
29.61378977010247
 21
55.95741659173588
 31
0.0
  0
LINE
  5
733
330
677
100
AcDbEntity
  8
Bemaßungen(TC_020513_DIN)
  6
Continuous
 62
     7
370
    25
100
AcDbLine
 10
61.61378977010246
 20
66.95741659173588
 30
0.0
 11
61.61378977010246
 21
55.95741659173588
 31
0.0
  0
LINE
  5
734
330
677
100
AcDbEntity
  8
Bemaßungen(TC_020513_DIN)
  6
Continuous
 62
     7
370
    25
100
AcDbLine
 10
32.11378977010247
 20
57.95741659173588
 30
0.0
 11
59.11378977010246
 21
57.95741659173588
 31
0.0
  0
SOLID
  5
735
330
677
100
AcDbEntity
  8
Bemaßungen(TC_020513_DIN)
  6
Continuous
 62
     7
100
AcDbTrace
 10
32.11378977010247
 20
58.37408325840254
 30
0.0
 11
32.11378977010247
 21
57.54074992506922
 31
0.0
 12
29.61378977010247
 22
57.95741659173588
 32
0.0
 13
29.61378977010247
 23
57.95741659173588
 33
0.0
  0
SOLID
  5
736
330
677
100
AcDbEntity
  8
Bemaßungen(TC_020513_DIN)
  6
Continuous
 62
     7
100
AcDbTrace
 10
59.11378977010246
 20
58.37408325840254
 30
0.0
 11
59.11378977010246
 21
57.54074992506922
 31
0.0
 12
61.61378977010246
 22
57.95741659173588
 32
0.0
 13
61.61378977010246
 23
57.95741659173588
 33
0.0
  0
MTEXT
  5
737
330
677
100
AcDbEntity
  8
Bemaßungen(TC_020513_DIN)
  6
Continuous
 62
     7
370
    25
100
AcDbMText
 10
43.12606807842443
 20
62.3338149546281
 30
0.0
 40
3.5
 41
0.0
 71
     1
 72
     1
  1
\A1;32
  7
Aktuell-BSI
 73
     1
 44
1.0
1001
ACAD
1000
MTEXTBEGIN
1070
    73
1070
     1
1070
    44
1040
1.0
1070
    74
1070
     0
1000
MTEXTEND
  0
POINT
  5
738
330
677
100
AcDbEntity
  8
Defpoints
  6
Continuous
 62
     0
100
AcDbPoint
 10
29.61378977010247
 20
67.95741659173588
 30
0.0
  0
POINT
  5
739
330
677
100
AcDbEntity
  8
Defpoints
  6
Continuous
 62
     0
100
AcDbPoint
 10
61.61378977010246
 20
67.95741659173588
 30
0.0
  0
POINT
  5
73A
330
677
100
AcDbEntity
  8
Defpoints
  6
Continuous
 62
     0
100
AcDbPoint
 10
61.61378977010246
 20
57.95741659173588
 30
0.0
  0
ENDBLK
  5
683
330
677
100
AcDbEntity
  8
0
100
AcDbBlockEnd
  0
BLOCK
  5
747
330
73C
100
AcDbEntity
  8
0
100
AcDbBlockBegin
  2
*D15
 70
     1
 10
0.0
 20
0.0
 30
0.0
  3
*D15
  1

  0
LINE
  5
7F7
330
73C
100
AcDbEntity
  8
Bemaßungen(TC_020513_DIN)
  6
Continuous
 62
     7
370
    25
100
AcDbLine
 10
27.11378977010246
 20
74.95741659173588
 30
0.0
 11
27.11378977010245
 21
45.95741659173588
 31
0.0
  0
LINE
  5
7F8
330
73C
100
AcDbEntity
  8
Bemaßungen(TC_020513_DIN)
  6
Continuous
 62
     7
370
    25
100
AcDbLine
 10
64.11378977010247
 20
74.95741659173589
 30
0.0
 11
64.11378977010247
 21
45.95741659173588
 31
0.0
  0
LINE
  5
7F9
330
73C
100
AcDbEntity
  8
Bemaßungen(TC_020513_DIN)
  6
Continuous
 62
     7
370
    25
100
AcDbLine
 10
29.61378977010246
 20
47.95741659173588
 30
0.0
 11
61.61378977010247
 21
47.95741659173588
 31
0.0
  0
SOLID
  5
7FA
330
73C
100
AcDbEntity
  8
Bemaßungen(TC_020513_DIN)
  6
Continuous
 62
     7
100
AcDbTrace
 10
29.61378977010246
 20
48.37408325840254
 30
0.0
 11
29.61378977010246
 21
47.54074992506921
 31
0.0
 12
27.11378977010246
 22
47.95741659173588
 32
0.0
 13
27.11378977010246
 23
47.95741659173588
 33
0.0
  0
SOLID
  5
7FB
330
73C
100
AcDbEntity
  8
Bemaßungen(TC_020513_DIN)
  6
Continuous
 62
     7
100
AcDbTrace
 10
61.61378977010247
 20
48.37408325840254
 30
0.0
 11
61.61378977010247
 21
47.54074992506921
 31
0.0
 12
64.11378977010247
 22
47.95741659173588
 32
0.0
 13
64.11378977010247
 23
47.95741659173588
 33
0.0
  0
MTEXT
  5
7FC
330
73C
100
AcDbEntity
  8
Bemaßungen(TC_020513_DIN)
  6
Continuous
 62
     7
370
    25
100
AcDbMText
 10
43.10816221212156
 20
52.3338149546281
 30
0.0
 40
3.5
 41
0.0
 71
     1
 72
     1
  1
\A1;37
  7
Aktuell-BSI
 73
     1
 44
1.0
1001
ACAD
1000
MTEXTBEGIN
1070
    73
1070
     1
1070
    44
1040
1.0
1070
    74
1070
     0
1000
MTEXTEND
  0
POINT
  5
7FD
330
73C
100
AcDbEntity
  8
Defpoints
  6
Continuous
 62
     0
100
AcDbPoint
 10
27.11378977010246
 20
75.95741659173588
 30
0.0
  0
POINT
  5
7FE
330
73C
100
AcDbEntity
  8
Defpoints
  6
Continuous
 62
     0
100
AcDbPoint
 10
64.11378977010247
 20
75.95741659173589
 30
0.0
  0
POINT
  5
7FF
330
73C
100
AcDbEntity
  8
Defpoints
  6
Continuous
 62
     0
100
AcDbPoint
 10
64.11378977010247
 20
47.95741659173588
 30
0.0
  0
ENDBLK
  5
748
330
73C
100
AcDbEntity
  8
0
100
AcDbBlockEnd
  0
BLOCK
  5
811
330
806
100
AcDbEntity
  8
0
100
AcDbBlockBegin
  2
*D16
 70
     1
 10
0.0
 20
0.0
 30
0.0
  3
*D16
  1

  0
LINE
  5
8BC
330
806
100
AcDbEntity
  8
Bemaßungen(TC_020513_DIN)
  6
Continuous
 62
     7
370
    25
100
AcDbLine
 10
92.4649922663505
 20
72.99130723819449
 30
0.0
 11
92.4649922663505
 21
61.99130723819449
 31
0.0
  0
LINE
  5
8BD
330
806
100
AcDbEntity
  8
Bemaßungen(TC_020513_DIN)
  6
Continuous
 62
     7
370
    25
100
AcDbLine
 10
174.9649922663505
 20
72.99130723819449
 30
0.0
 11
174.9649922663505
 21
61.99130723819449
 31
0.0
  0
LINE
  5
8BE
330
806
100
AcDbEntity
  8
Bemaßungen(TC_020513_DIN)
  6
Continuous
 62
     7
370
    25
100
AcDbLine
 10
94.9649922663505
 20
63.9913072381945
 30
0.0
 11
172.4649922663505
 21
63.9913072381945
 31
0.0
  0
SOLID
  5
8BF
330
806
100
AcDbEntity
  8
Bemaßungen(TC_020513_DIN)
  6
Continuous
 62
     7
100
AcDbTrace
 10
94.9649922663505
 20
64.40797390486117
 30
0.0
 11
94.9649922663505
 21
63.57464057152783
 31
0.0
 12
92.4649922663505
 22
63.9913072381945
 32
0.0
 13
92.4649922663505
 23
63.9913072381945
 33
0.0
  0
SOLID
  5
8C0
330
806
100
AcDbEntity
  8
Bemaßungen(TC_020513_DIN)
  6
Continuous
 62
     7
100
AcDbTrace
 10
172.4649922663505
 20
64.40797390486117
 30
0.0
 11
172.4649922663505
 21
63.57464057152783
 31
0.0
 12
174.9649922663505
 22
63.9913072381945
 32
0.0
 13
174.9649922663505
 23
63.9913072381945
 33
0.0
  0
MTEXT
  5
8C1
330
806
100
AcDbEntity
  8
Bemaßungen(TC_020513_DIN)
  6
Continuous
 62
     7
370
    25
100
AcDbMText
 10
129.1537712568007
 20
68.99799209494756
 30
0.0
 40
3.5
 41
0.0
 71
     1
 72
     1
  1
\A1;82,5
  7
Aktuell-BSI
 73
     1
 44
1.0
1001
ACAD
1000
MTEXTBEGIN
1070
    73
1070
     1
1070
    44
1040
1.0
1070
    74
1070
     0
1000
MTEXTEND
  0
POINT
  5
8C2
330
806
100
AcDbEntity
  8
Defpoints
  6
Continuous
 62
     0
100
AcDbPoint
 10
92.4649922663505
 20
73.9913072381945
 30
0.0
  0
POINT
  5
8C3
330
806
100
AcDbEntity
  8
Defpoints
  6
Continuous
 62
     0
100
AcDbPoint
 10
174.9649922663505
 20
73.9913072381945
 30
0.0
  0
POINT
  5
8C4
330
806
100
AcDbEntity
  8
Defpoints
  6
Continuous
 62
     0
100
AcDbPoint
 10
174.9649922663505
 20
63.9913072381945
 30
0.0
  0
ENDBLK
  5
812
330
806
100
AcDbEntity
  8
0
100
AcDbBlockEnd
  0
BLOCK
  5
8D5
330
8CA
100
AcDbEntity
  8
0
100
AcDbBlockBegin
  2
*D17
 70
     1
 10
0.0
 20
0.0
 30
0.0
  3
*D17
  1

  0
LINE
  5
985
330
8CA
100
AcDbEntity
  8
Bemaßungen(TC_020513_DIN)
  6
Continuous
 62
     7
370
    25
100
AcDbLine
 10
265.1230421388679
 20
74.74130723819449
 30
0.0
 11
265.1230421388679
 21
61.99130723819449
 31
0.0
  0
LINE
  5
986
330
8CA
100
AcDbEntity
  8
Bemaßungen(TC_020513_DIN)
  6
Continuous
 62
     7
370
    25
100
AcDbLine
 10
219.623042138868
 20
74.74130723819449
 30
0.0
 11
219.623042138868
 21
61.99130723819449
 31
0.0
  0
LINE
  5
987
330
8CA
100
AcDbEntity
  8
Bemaßungen(TC_020513_DIN)
  6
Continuous
 62
     7
370
    25
100
AcDbLine
 10
262.623042138868
 20
63.9913072381945
 30
0.0
 11
222.123042138868
 21
63.9913072381945
 31
0.0
  0
SOLID
  5
988
330
8CA
100
AcDbEntity
  8
Bemaßungen(TC_020513_DIN)
  6
Continuous
 62
     7
100
AcDbTrace
 10
262.623042138868
 20
64.40797390486117
 30
0.0
 11
262.623042138868
 21
63.57464057152783
 31
0.0
 12
265.1230421388679
 22
63.9913072381945
 32
0.0
 13
265.1230421388679
 23
63.9913072381945
 33
0.0
  0
SOLID
  5
989
330
8CA
100
AcDbEntity
  8
Bemaßungen(TC_020513_DIN)
  6
Continuous
 62
     7
100
AcDbTrace
 10
222.123042138868
 20
64.40797390486117
 30
0.0
 11
222.123042138868
 21
63.57464057152783
 31
0.0
 12
219.623042138868
 22
63.9913072381945
 32
0.0
 13
219.623042138868
 23
63.9913072381945
 33
0.0
  0
MTEXT
  5
98A
330
8CA
100
AcDbEntity
  8
Bemaßungen(TC_020513_DIN)
  6
Continuous
 62
     7
370
    25
100
AcDbMText
 10
237.7437788373673
 20
68.98366740190528
 30
0.0
 40
3.5
 41
0.0
 71
     1
 72
     1
  1
\A1;45,5
  7
Aktuell-BSI
 73
     1
 44
1.0
1001
ACAD
1000
MTEXTBEGIN
1070
    73
1070
     1
1070
    44
1040
1.0
1070
    74
1070
     0
1000
MTEXTEND
  0
POINT
  5
98B
330
8CA
100
AcDbEntity
  8
Defpoints
  6
Continuous
 62
     0
100
AcDbPoint
 10
265.1230421388679
 20
75.74130723819449
 30
0.0
  0
POINT
  5
98C
330
8CA
100
AcDbEntity
  8
Defpoints
  6
Continuous
 62
     0
100
AcDbPoint
 10
219.623042138868
 20
75.74130723819449
 30
0.0
  0
POINT
  5
98D
330
8CA
100
AcDbEntity
  8
Defpoints
  6
Continuous
 62
     0
100
AcDbPoint
 10
219.623042138868
 20
63.9913072381945
 30
0.0
  0
ENDBLK
  5
8D6
330
8CA
100
AcDbEntity
  8
0
100
AcDbBlockEnd
  0
BLOCK
  5
99A
330
98F
100
AcDbEntity
  8
0
100
AcDbBlockBegin
  2
*D18
 70
     1
 10
0.0
 20
0.0
 30
0.0
  3
*D18
  1

  0
LINE
  5
A62
330
98F
100
AcDbEntity
  8
Bemaßungen(TC_020513_DIN)
  6
Continuous
 62
     7
370
    25
100
AcDbLine
 10
261.1230421388664
 20
73.9913072381945
 30
0.0
 11
276.2302091109564
 21
73.9913072381945
 31
0.0
  0
LINE
  5
A63
330
98F
100
AcDbEntity
  8
Bemaßungen(TC_020513_DIN)
  6
Continuous
 62
     7
370
    25
100
AcDbLine
 10
261.1230421388671
 20
79.99130723819449
 30
0.0
 11
276.2302091109564
 21
79.99130723819449
 31
0.0
  0
LINE
  5
A64
330
98F
100
AcDbEntity
  8
Bemaßungen(TC_020513_DIN)
  6
Continuous
 62
     7
370
    25
100
AcDbLine
 10
274.2302091109564
 20
71.4913072381945
 30
0.0
 11
274.2302091109564
 21
68.9913072381945
 31
0.0
  0
LINE
  5
A65
330
98F
100
AcDbEntity
  8
Bemaßungen(TC_020513_DIN)
  6
Continuous
 62
     7
370
    25
100
AcDbLine
 10
274.2302091109564
 20
82.49130723819449
 30
0.0
 11
274.2302091109564
 21
84.99130723819449
 31
0.0
  0
LINE
  5
A66
330
98F
100
AcDbEntity
  8
Bemaßungen(TC_020513_DIN)
  6
Continuous
 62
     7
370
    25
100
AcDbLine
 10
274.2302091109564
 20
73.9913072381945
 30
0.0
 11
274.2302091109564
 21
79.99130723819449
 31
0.0
  0
SOLID
  5
A67
330
98F
100
AcDbEntity
  8
Bemaßungen(TC_020513_DIN)
  6
Continuous
 62
     7
100
AcDbTrace
 10
273.8135424442897
 20
71.4913072381945
 30
0.0
 11
274.6468757776231
 21
71.4913072381945
 31
0.0
 12
274.2302091109564
 22
73.9913072381945
 32
0.0
 13
274.2302091109564
 23
73.9913072381945
 33
0.0
  0
SOLID
  5
A68
330
98F
100
AcDbEntity
  8
Bemaßungen(TC_020513_DIN)
  6
Continuous
 62
     7
100
AcDbTrace
 10
273.8135424442897
 20
82.49130723819449
 30
0.0
 11
274.6468757776231
 21
82.49130723819449
 31
0.0
 12
274.2302091109564
 22
79.99130723819449
 32
0.0
 13
274.2302091109564
 23
79.99130723819449
 33
0.0
  0
MTEXT
  5
A69
330
98F
100
AcDbEntity
  8
Bemaßungen(TC_020513_DIN)
  6
Continuous
 62
     7
370
    25
100
AcDbMText
 10
269.8561981969045
 20
75.83578199944965
 30
0.0
 40
3.5
 41
0.0
 71
     1
 72
     1
  1
\A1;6
  7
Aktuell-BSI
 11
0.0000000000000001
 21
1.0
 31
0.0
 73
     1
 44
1.0
1001
ACAD
1000
MTEXTBEGIN
1070
    73
1070
     1
1070
    44
1040
1.0
1070
    74
1070
     0
1000
MTEXTEND
  0
POINT
  5
A6A
330
98F
100
AcDbEntity
  8
Defpoints
  6
Continuous
 62
     0
100
AcDbPoint
 10
260.1230421388664
 20
73.9913072381945
 30
0.0
  0
POINT
  5
A6B
330
98F
100
AcDbEntity
  8
Defpoints
  6
Continuous
 62
     0
100
AcDbPoint
 10
260.123042138867
 20
79.99130723819449
 30
0.0
  0
POINT
  5
A6C
330
98F
100
AcDbEntity
  8
Defpoints
  6
Continuous
 62
     0
100
AcDbPoint
 10
274.2302091109564
 20
79.99130723819449
 30
0.0
  0
ENDBLK
  5
99B
330
98F
100
AcDbEntity
  8
0
100
AcDbBlockEnd
  0
BLOCK
  5
A79
330
A6E
100
AcDbEntity
  8
0
100
AcDbBlockBegin
  2
*D19
 70
     1
 10
0.0
 20
0.0
 30
0.0
  3
*D19
  1

  0
LINE
  5
B29
330
A6E
100
AcDbEntity
  8
Bemaßungen(TC_020513_DIN)
  6
Continuous
 62
     7
370
    25
100
AcDbLine
 10
259.3730421388697
 20
102.9913072381944
 30
0.0
 11
284.1230421388664
 21
102.9913072381944
 31
0.0
  0
LINE
  5
B2A
330
A6E
100
AcDbEntity
  8
Bemaßungen(TC_020513_DIN)
  6
Continuous
 62
     7
370
    25
100
AcDbLine
 10
261.1230421388664
 20
73.9913072381945
 30
0.0
 11
284.1230421388664
 21
73.9913072381945
 31
0.0
  0
LINE
  5
B2B
330
A6E
100
AcDbEntity
  8
Bemaßungen(TC_020513_DIN)
  6
Continuous
 62
     7
370
    25
100
AcDbLine
 10
282.1230421388664
 20
100.4913072381945
 30
0.0
 11
282.1230421388664
 21
76.4913072381945
 31
0.0
  0
SOLID
  5
B2C
330
A6E
100
AcDbEntity
  8
Bemaßungen(TC_020513_DIN)
  6
Continuous
 62
     7
100
AcDbTrace
 10
281.7063754721997
 20
100.4913072381945
 30
0.0
 11
282.5397088055331
 21
100.4913072381945
 31
0.0
 12
282.1230421388664
 22
102.9913072381944
 32
0.0
 13
282.1230421388664
 23
102.9913072381944
 33
0.0
  0
SOLID
  5
B2D
330
A6E
100
AcDbEntity
  8
Bemaßungen(TC_020513_DIN)
  6
Continuous
 62
     7
100
AcDbTrace
 10
281.7063754721997
 20
76.4913072381945
 30
0.0
 11
282.5397088055331
 21
76.4913072381945
 31
0.0
 12
282.1230421388664
 22
73.9913072381945
 32
0.0
 13
282.1230421388664
 23
73.9913072381945
 33
0.0
  0
MTEXT
  5
B2E
330
A6E
100
AcDbEntity
  8
Bemaßungen(TC_020513_DIN)
  6
Continuous
 62
     7
370
    25
100
AcDbMText
 10
277.7490312248146
 20
85.95106167202805
 30
0.0
 40
3.5
 41
0.0
 71
     1
 72
     1
  1
\A1;29
  7
Aktuell-BSI
 11
0.0000000000000001
 21
1.0
 31
0.0
 73
     1
 44
1.0
1001
ACAD
1000
MTEXTBEGIN
1070
    73
1070
     1
1070
    44
1040
1.0
1070
    74
1070
     0
1000
MTEXTEND
  0
POINT
  5
B2F
330
A6E
100
AcDbEntity
  8
Defpoints
  6
Continuous
 62
     0
100
AcDbPoint
 10
258.3730421388697
 20
102.9913072381944
 30
0.0
  0
POINT
  5
B30
330
A6E
100
AcDbEntity
  8
Defpoints
  6
Continuous
 62
     0
100
AcDbPoint
 10
260.1230421388664
 20
73.9913072381945
 30
0.0
  0
POINT
  5
B31
330
A6E
100
AcDbEntity
  8
Defpoints
  6
Continuous
 62
     0
100
AcDbPoint
 10
282.1230421388664
 20
73.9913072381945
 30
0.0
  0
ENDBLK
  5
A7A
330
A6E
100
AcDbEntity
  8
0
100
AcDbBlockEnd
  0
BLOCK
  5
B3E
330
B33
100
AcDbEntity
  8
0
100
AcDbBlockBegin
  2
*D20
 70
     1
 10
0.0
 20
0.0
 30
0.0
  3
*D20
  1

  0
LINE
  5
BE9
330
B33
100
AcDbEntity
  8
Bemaßungen(TC_020513_DIN)
  6
Continuous
 62
     7
370
    25
100
AcDbLine
 10
264.3730421388715
 20
103.9913072381944
 30
0.0
 11
264.3730421388715
 21
176.5567834595194
 31
0.0
  0
LINE
  5
BEA
330
B33
100
AcDbEntity
  8
Bemaßungen(TC_020513_DIN)
  6
Continuous
 62
     7
370
    25
100
AcDbLine
 10
194.6230421388704
 20
154.9913072381945
 30
0.0
 11
194.6230421388704
 21
176.5567834595194
 31
0.0
  0
LINE
  5
BEB
330
B33
100
AcDbEntity
  8
Bemaßungen(TC_020513_DIN)
  6
Continuous
 62
     7
370
    25
100
AcDbLine
 10
261.8730421388715
 20
174.5567834595194
 30
0.0
 11
197.1230421388703
 21
174.5567834595194
 31
0.0
  0
SOLID
  5
BEC
330
B33
100
AcDbEntity
  8
Bemaßungen(TC_020513_DIN)
  6
Continuous
 62
     7
100
AcDbTrace
 10
261.8730421388715
 20
174.9734501261861
 30
0.0
 11
261.8730421388715
 21
174.1401167928528
 31
0.0
 12
264.3730421388715
 22
174.5567834595194
 32
0.0
 13
264.3730421388715
 23
174.5567834595194
 33
0.0
  0
SOLID
  5
BED
330
B33
100
AcDbEntity
  8
Bemaßungen(TC_020513_DIN)
  6
Continuous
 62
     7
100
AcDbTrace
 10
197.1230421388703
 20
174.9734501261861
 30
0.0
 11
197.1230421388703
 21
174.1401167928528
 31
0.0
 12
194.6230421388704
 22
174.5567834595194
 32
0.0
 13
194.6230421388704
 23
174.5567834595194
 33
0.0
  0
MTEXT
  5
BEE
330
B33
100
AcDbEntity
  8
Bemaßungen(TC_020513_DIN)
  6
Continuous
 62
     7
370
    25
100
AcDbMText
 10
227.0115141716131
 20
178.9307943735713
 30
0.0
 40
3.5
 41
0.0
 71
     1
 72
     1
  1
\A1;70
  7
Aktuell-BSI
 73
     1
 44
1.0
1001
ACAD
1000
MTEXTBEGIN
1070
    73
1070
     1
1070
    44
1040
1.0
1070
    74
1070
     0
1000
MTEXTEND
  0
POINT
  5
BEF
330
B33
100
AcDbEntity
  8
Defpoints
  6
Continuous
 62
     0
100
AcDbPoint
 10
264.3730421388715
 20
102.9913072381944
 30
0.0
  0
POINT
  5
BF0
330
B33
100
AcDbEntity
  8
Defpoints
  6
Continuous
 62
     0
100
AcDbPoint
 10
194.6230421388704
 20
153.9913072381945
 30
0.0
  0
POINT
  5
BF1
330
B33
100
AcDbEntity
  8
Defpoints
  6
Continuous
 62
     0
100
AcDbPoint
 10
194.6230421388704
 20
174.5567834595194
 30
0.0
  0
ENDBLK
  5
B3F
330
B33
100
AcDbEntity
  8
0
100
AcDbBlockEnd
  0
ENDSEC
  0
SECTION
  2
ENTITIES
  0
INSERT
  5
153
330
37
100
AcDbEntity
  8
0
100
AcDbBlockReference
  2
Ränder Ilme Rahmen A4 quer
 10
0.0
 20
0.0
 30
0.0
  0
INSERT
  5
1C7
330
37
100
AcDbEntity
  8
0
100
AcDbBlockReference
 66
     1
  2
Schriftfelder Ilme
 10
87.01981004969702
 20
-0.0006400926262484
 30
0.0
  0
ATTRIB
  5
1C9
330
1C7
100
AcDbEntity
  8
Symbole(ISO)
 62
     7
100
AcDbText
 10
138.0
 20
11.74999997019763
 30
0.0
 40
4.000000059604644
  1
bulkhead housing with pegs and cover
  7
Kopie von TC 5 mm
 11
138.0
 21
13.74999999999995
 31
0.0
100
AcDbAttribute
  2
BEZEICHNUNG
 70
     0
 74
     2
  0
ATTRIB
  5
1CA
330
1C7
100
AcDbEntity
  8
Symbole(ISO)
 62
     7
100
AcDbText
 10
251.3054571416743
 20
12.49999999999995
 30
0.0
 40
5.0
  1
1:1
 41
0.899999976158142
  7
TC 5 mm
 72
     1
 11
255.675
 21
14.99999999999995
 31
0.0
100
AcDbAttribute
  2
FirstViewScale
 70
     0
 74
     2
  0
ATTRIB
  5
1CB
330
1C7
100
AcDbEntity
  8
Symbole(ISO)
 62
     7
100
AcDbText
 10
138.0
 20
19.24999997019763
 30
0.0
 40
4.000000059604644
  1
CHI 06 LCS
 41
1.199999928474426
  7
Kopie von TC 5 mm
 11
138.0
 21
21.24999999999996
 31
0.0
100
AcDbAttribute
  2
BAUTEILNUMMER
 70
     0
 74
     2
  0
SEQEND
  5
1C8
330
1C7
100
AcDbEntity
  8
0
  0
LINE
  5
1CC
330
37
100
AcDbEntity
  8
Sichtbare Kanten(TC_020513_DIN)
100
AcDbLine
 10
163.9649922663505
 20
97.49130723819449
 30
0.0
 11
157.9649922663505
 21
97.49130723819449
 31
0.0
  0
LINE
  5
1CD
330
37
100
AcDbEntity
  8
Sichtbare Kanten(TC_020513_DIN)
100
AcDbLine
 10
109.4649922663505
 20
97.49130723819449
 30
0.0
 11
157.9649922663505
 21
97.49130723819449
 31
0.0
  0
LINE
  5
1CE
330
37
100
AcDbEntity
  8
Sichtbare Kanten(TC_020513_DIN)
100
AcDbLine
 10
109.4649922663505
 20
97.49130723819449
 30
0.0
 11
103.4649922663505
 21
97.49130723819449
 31
0.0
  0
LINE
  5
1CF
330
37
100
AcDbEntity
  8
Sichtbare Kanten(TC_020513_DIN)
100
AcDbLine
 10
103.4649922663505
 20
102.9913072381944
 30
0.0
 11
103.4649922663505
 21
97.49130723819449
 31
0.0
  0
LINE
  5
1D0
330
37
100
AcDbEntity
  8
Sichtbare Kanten(TC_020513_DIN)
100
AcDbLine
 10
103.4649922663505
 20
102.9913072381944
 30
0.0
 11
109.4649922663505
 21
102.9913072381944
 31
0.0
  0
LINE
  5
1D1
330
37
100
AcDbEntity
  8
Sichtbare Kanten(TC_020513_DIN)
100
AcDbLine
 10
157.9649922663505
 20
102.9913072381944
 30
0.0
 11
109.4649922663505
 21
102.9913072381944
 31
0.0
  0
LINE
  5
1D2
330
37
100
AcDbEntity
  8
Sichtbare Kanten(TC_020513_DIN)
100
AcDbLine
 10
163.9649922663504
 20
102.9913072381944
 30
0.0
 11
163.9649922663504
 21
97.49130723819449
 31
0.0
  0
LINE
  5
1D3
330
37
100
AcDbEntity
  8
Sichtbare Kanten(TC_020513_DIN)
100
AcDbLine
 10
157.9649922663505
 20
102.9913072381944
 30
0.0
 11
163.9649922663505
 21
102.9913072381944
 31
0.0
  0
LINE
  5
1D4
330
37
100
AcDbEntity
  8
Verdeckte Kanten(TC_020513_DIN)
 48
10.47573089599609
100
AcDbLine
 10
107.4649922663505
 20
102.9913072381944
 30
0.0
 11
107.4649922663505
 21
97.49130723819448
 31
0.0
  0
LINE
  5
1D5
330
37
100
AcDbEntity
  8
Verdeckte Kanten(TC_020513_DIN)
 48
10.47573089599609
100
AcDbLine
 10
159.9649922663505
 20
102.9913072381944
 30
0.0
 11
159.9649922663505
 21
97.49130723819448
 31
0.0
  0
LINE
  5
1D6
330
37
100
AcDbEntity
  8
Sichtbare Kanten(TC_020513_DIN)
100
AcDbLine
 10
124.4649922663505
 20
159.9913072381944
 30
0.0
 11
124.4649922663505
 21
162.6913072381944
 31
0.0
  0
LINE
  5
1D7
330
37
100
AcDbEntity
  8
Sichtbare Kanten(TC_020513_DIN)
100
AcDbLine
 10
142.9649922663505
 20
162.6913072381944
 30
0.0
 11
142.9649922663505
 21
159.9913072381944
 31
0.0
  0
LINE
  5
1D8
330
37
100
AcDbEntity
  8
Sichtbare Kanten(TC_020513_DIN)
100
AcDbLine
 10
124.4649922663505
 20
162.6913072381944
 30
0.0
 11
142.9649922663505
 21
162.6913072381944
 31
0.0
  0
LINE
  5
1D9
330
37
100
AcDbEntity
  8
Verdeckte Kanten(TC_020513_DIN)
 48
17.90033912658691
100
AcDbLine
 10
124.4649922663505
 20
159.9913072381944
 30
0.0
 11
142.9649922663505
 21
159.9913072381944
 31
0.0
  0
LINE
  5
1DA
330
37
100
AcDbEntity
  8
Sichtbare Kanten(TC_020513_DIN)
100
AcDbLine
 10
100.2149922663505
 20
140.7413072381945
 30
0.0
 11
100.2149922663505
 21
135.7413072381945
 31
0.0
  0
LINE
  5
1DB
330
37
100
AcDbEntity
  8
Sichtbare Kanten(TC_020513_DIN)
100
AcDbLine
 10
104.7149922663505
 20
135.7413072381945
 30
0.0
 11
100.2149922663505
 21
135.7413072381945
 31
0.0
  0
LINE
  5
1DC
330
37
100
AcDbEntity
  8
Sichtbare Kanten(TC_020513_DIN)
100
AcDbLine
 10
104.7149922663505
 20
140.7413072381945
 30
0.0
 11
100.2149922663505
 21
140.7413072381945
 31
0.0
  0
LINE
  5
1DD
330
37
100
AcDbEntity
  8
Sichtbare Kanten(TC_020513_DIN)
100
AcDbLine
 10
167.2149922663505
 20
140.7413072381945
 30
0.0
 11
167.2149922663505
 21
135.7413072381945
 31
0.0
  0
LINE
  5
1DE
330
37
100
AcDbEntity
  8
Sichtbare Kanten(TC_020513_DIN)
100
AcDbLine
 10
167.2149922663504
 20
135.7413072381945
 30
0.0
 11
162.7149922663505
 21
135.7413072381945
 31
0.0
  0
LINE
  5
1DF
330
37
100
AcDbEntity
  8
Sichtbare Kanten(TC_020513_DIN)
100
AcDbLine
 10
167.2149922663505
 20
140.7413072381945
 30
0.0
 11
162.7149922663504
 21
140.7413072381945
 31
0.0
  0
LINE
  5
1E0
330
37
100
AcDbEntity
  8
Sichtbare Kanten(TC_020513_DIN)
100
AcDbLine
 10
156.7149922663505
 20
118.9913072381945
 30
0.0
 11
110.7149922663505
 21
118.9913072381945
 31
0.0
  0
ARC
  5
1E1
330
37
100
AcDbEntity
  8
Sichtbare Kanten(TC_020513_DIN)
100
AcDbCircle
 10
110.7149922663505
 20
122.4913072381945
 30
0.0
 40
3.499999999999996
100
AcDbArc
 50
180.0
 51
270.0
  0
LINE
  5
1E2
330
37
100
AcDbEntity
  8
Sichtbare Kanten(TC_020513_DIN)
100
AcDbLine
 10
107.2149922663504
 20
122.4913072381945
 30
0.0
 11
107.2149922663505
 21
153.9913072381945
 31
0.0
  0
ARC
  5
1E3
330
37
100
AcDbEntity
  8
Sichtbare Kanten(TC_020513_DIN)
100
AcDbCircle
 10
110.7149922663505
 20
153.9913072381944
 30
0.0
 40
3.500000000000009
100
AcDbArc
 50
90.0000000000003
 51
180.0
  0
ARC
  5
1E4
330
37
100
AcDbEntity
  8
Sichtbare Kanten(TC_020513_DIN)
100
AcDbCircle
 10
110.7149922663505
 20
122.4913072381945
 30
0.0
 40
6.000000000000008
100
AcDbArc
 50
180.0
 51
269.9999999999998
  0
LINE
  5
1E5
330
37
100
AcDbEntity
  8
Sichtbare Kanten(TC_020513_DIN)
100
AcDbLine
 10
110.7149922663505
 20
116.4913072381945
 30
0.0
 11
156.7149922663505
 21
116.4913072381945
 31
0.0
  0
ARC
  5
1E6
330
37
100
AcDbEntity
  8
Sichtbare Kanten(TC_020513_DIN)
100
AcDbCircle
 10
156.7149922663504
 20
122.4913072381945
 30
0.0
 40
3.500000000000005
100
AcDbArc
 50
269.9999999999997
 51
0.0
  0
LINE
  5
1E7
330
37
100
AcDbEntity
  8
Sichtbare Kanten(TC_020513_DIN)
100
AcDbLine
 10
160.2149922663504
 20
153.9913072381945
 30
0.0
 11
160.2149922663504
 21
122.4913072381945
 31
0.0
  0
ARC
  5
1E8
330
37
100
AcDbEntity
  8
Sichtbare Kanten(TC_020513_DIN)
100
AcDbCircle
 10
156.7149922663504
 20
153.9913072381945
 30
0.0
 40
3.500000000000005
100
AcDbArc
 50
0.0
 51
90.0
  0
LINE
  5
1E9
330
37
100
AcDbEntity
  8
Sichtbare Kanten(TC_020513_DIN)
100
AcDbLine
 10
110.7149922663505
 20
157.4913072381945
 30
0.0
 11
156.7149922663505
 21
157.4913072381945
 31
0.0
  0
LINE
  5
1EA
330
37
100
AcDbEntity
  8
Sichtbare Kanten(TC_020513_DIN)
100
AcDbLine
 10
156.7149922663505
 20
159.9913072381945
 30
0.0
 11
142.9649922663505
 21
159.9913072381944
 31
0.0
  0
LINE
  5
1EB
330
37
100
AcDbEntity
  8
Sichtbare Kanten(TC_020513_DIN)
100
AcDbLine
 10
124.4649922663505
 20
159.9913072381944
 30
0.0
 11
110.7149922663505
 21
159.9913072381945
 31
0.0
  0
ARC
  5
1EC
330
37
100
AcDbEntity
  8
Sichtbare Kanten(TC_020513_DIN)
100
AcDbCircle
 10
110.7149922663504
 20
153.9913072381945
 30
0.0
 40
5.999999999999978
100
AcDbArc
 50
89.99999999999984
 51
180.0
  0
LINE
  5
1ED
330
37
100
AcDbEntity
  8
Sichtbare Kanten(TC_020513_DIN)
100
AcDbLine
 10
104.7149922663505
 20
153.9913072381945
 30
0.0
 11
104.7149922663505
 21
122.4913072381945
 31
0.0
  0
ARC
  5
1EE
330
37
100
AcDbEntity
  8
Sichtbare Kanten(TC_020513_DIN)
100
AcDbCircle
 10
156.7149922663505
 20
122.4913072381945
 30
0.0
 40
5.999999999999996
100
AcDbArc
 50
269.9999999999998
 51
0.0
  0
LINE
  5
1EF
330
37
100
AcDbEntity
  8
Sichtbare Kanten(TC_020513_DIN)
100
AcDbLine
 10
162.7149922663505
 20
122.4913072381945
 30
0.0
 11
162.7149922663504
 21
153.9913072381945
 31
0.0
  0
ARC
  5
1F0
330
37
100
AcDbEntity
  8
Sichtbare Kanten(TC_020513_DIN)
100
AcDbCircle
 10
156.7149922663504
 20
153.9913072381945
 30
0.0
 40
6.000000000000014
100
AcDbArc
 50
0.0
 51
89.99999999999984
  0
POLYLINE
  5
1F1
330
37
100
AcDbEntity
  8
Verdeckte Kanten(TC_020513_DIN)
 48
3.093065023422241
100
AcDb2dPolyline
 66
     1
 10
0.0
 20
0.0
 30
0.0
 70
   128
  0
VERTEX
  5
1F2
330
1F1
100
AcDbEntity
  8
Verdeckte Kanten(TC_020513_DIN)
 48
3.093065023422241
100
AcDbVertex
100
AcDb2dVertex
 10
142.4378626162345
 20
117.4913062845202
 30
0.0
  0
VERTEX
  5
1F3
330
1F1
100
AcDbEntity
  8
Verdeckte Kanten(TC_020513_DIN)
 48
3.093065023422241
100
AcDbVertex
100
AcDb2dVertex
 10
142.4198441321189
 20
117.4247064386339
 30
0.0
  0
VERTEX
  5
1F5
330
1F1
100
AcDbEntity
  8
Verdeckte Kanten(TC_020513_DIN)
 48
3.093065023422241
100
AcDbVertex
100
AcDb2dVertex
 10
142.4054186159904
 20
117.3581208978625
 30
0.0
  0
VERTEX
  5
1F6
330
1F1
100
AcDbEntity
  8
Verdeckte Kanten(TC_020513_DIN)
 48
3.093065023422241
100
AcDbVertex
100
AcDb2dVertex
 10
142.395006876641
 20
117.2922792230578
 30
0.0
  0
VERTEX
  5
1F7
330
1F1
100
AcDbEntity
  8
Verdeckte Kanten(TC_020513_DIN)
 48
3.093065023422241
100
AcDbVertex
100
AcDb2dVertex
 10
142.3890195900733
 20
117.2279014383288
 30
0.0
  0
VERTEX
  5
1F8
330
1F1
100
AcDbEntity
  8
Verdeckte Kanten(TC_020513_DIN)
 48
3.093065023422241
100
AcDbVertex
100
AcDb2dVertex
 10
142.3878668362434
 20
117.1656217370959
 30
0.0
  0
VERTEX
  5
1F9
330
1F1
100
AcDbEntity
  8
Verdeckte Kanten(TC_020513_DIN)
 48
3.093065023422241
100
AcDbVertex
100
AcDb2dVertex
 10
142.3916857058341
 20
117.1042670999498
 30
0.0
  0
VERTEX
  5
1FA
330
1F1
100
AcDbEntity
  8
Verdeckte Kanten(TC_020513_DIN)
 48
3.093065023422241
100
AcDbVertex
100
AcDb2dVertex
 10
142.4001185709769
 20
117.043823221776
 30
0.0
  0
VERTEX
  5
1FB
330
1F1
100
AcDbEntity
  8
Verdeckte Kanten(TC_020513_DIN)
 48
3.093065023422241
100
AcDbVertex
100
AcDb2dVertex
 10
142.4127541596229
 20
116.9849958215685
 30
0.0
  0
VERTEX
  5
1FC
330
1F1
100
AcDbEntity
  8
Verdeckte Kanten(TC_020513_DIN)
 48
3.093065023422241
100
AcDbVertex
100
AcDb2dVertex
 10
142.4291794115836
 20
116.9284810815783
 30
0.0
  0
VERTEX
  5
1FD
330
1F1
100
AcDbEntity
  8
Verdeckte Kanten(TC_020513_DIN)
 48
3.093065023422241
100
AcDbVertex
100
AcDb2dVertex
 10
142.448842983895
 20
116.8749322687121
 30
0.0
  0
VERTEX
  5
1FE
330
1F1
100
AcDbEntity
  8
Verdeckte Kanten(TC_020513_DIN)
 48
3.093065023422241
100
AcDbVertex
100
AcDb2dVertex
 10
142.470753055268
 20
116.8246879373522
 30
0.0
  0
VERTEX
  5
1FF
330
1F1
100
AcDbEntity
  8
Verdeckte Kanten(TC_020513_DIN)
 48
3.093065023422241
100
AcDbVertex
100
AcDb2dVertex
 10
142.4940596634681
 20
116.7780437265368
 30
0.0
  0
VERTEX
  5
200
330
1F1
100
AcDbEntity
  8
Verdeckte Kanten(TC_020513_DIN)
 48
3.093065023422241
100
AcDbVertex
100
AcDb2dVertex
 10
142.5179253632362
 20
116.7352857385607
 30
0.0
  0
VERTEX
  5
201
330
1F1
100
AcDbEntity
  8
Verdeckte Kanten(TC_020513_DIN)
 48
3.093065023422241
100
AcDbVertex
100
AcDb2dVertex
 10
142.5415484721
 20
116.6966714654894
 30
0.0
  0
VERTEX
  5
202
330
1F1
100
AcDbEntity
  8
Verdeckte Kanten(TC_020513_DIN)
 48
3.093065023422241
100
AcDbVertex
100
AcDb2dVertex
 10
142.5653521830375
 20
116.660751322362
 30
0.0
  0
VERTEX
  5
203
330
1F1
100
AcDbEntity
  8
Verdeckte Kanten(TC_020513_DIN)
 48
3.093065023422241
100
AcDbVertex
100
AcDb2dVertex
 10
142.5892685467536
 20
116.6271295343371
 30
0.0
  0
VERTEX
  5
204
330
1F1
100
AcDbEntity
  8
Verdeckte Kanten(TC_020513_DIN)
 48
3.093065023422241
100
AcDbVertex
100
AcDb2dVertex
 10
142.6126496607597
 20
116.5963401590319
 30
0.0
  0
VERTEX
  5
205
330
1F1
100
AcDbEntity
  8
Verdeckte Kanten(TC_020513_DIN)
 48
3.093065023422241
100
AcDbVertex
100
AcDb2dVertex
 10
142.6348476225669
 20
116.5688981805773
 30
0.0
  0
VERTEX
  5
206
330
1F1
100
AcDbEntity
  8
Verdeckte Kanten(TC_020513_DIN)
 48
3.093065023422241
100
AcDbVertex
100
AcDb2dVertex
 10
142.6552061850364
 20
116.5453185831041
 30
0.0
  0
VERTEX
  5
207
330
1F1
100
AcDbEntity
  8
Verdeckte Kanten(TC_020513_DIN)
 48
3.093065023422241
100
AcDbVertex
100
AcDb2dVertex
 10
142.6731471831138
 20
116.5259065423937
 30
0.0
  0
VERTEX
  5
208
330
1F1
100
AcDbEntity
  8
Verdeckte Kanten(TC_020513_DIN)
 48
3.093065023422241
100
AcDbVertex
100
AcDb2dVertex
 10
142.6883058363731
 20
116.5107478891344
 30
0.0
  0
VERTEX
  5
209
330
1F1
100
AcDbEntity
  8
Verdeckte Kanten(TC_020513_DIN)
 48
3.093065023422241
100
AcDbVertex
100
AcDb2dVertex
 10
142.7003352457816
 20
116.4998998437853
 30
0.0
  0
VERTEX
  5
20A
330
1F1
100
AcDbEntity
  8
Verdeckte Kanten(TC_020513_DIN)
 48
3.093065023422241
100
AcDbVertex
100
AcDb2dVertex
 10
142.7088897043998
 20
116.4934387002916
 30
0.0
  0
VERTEX
  5
20B
330
1F1
100
AcDbEntity
  8
Verdeckte Kanten(TC_020513_DIN)
 48
3.093065023422241
100
AcDbVertex
100
AcDb2dVertex
 10
142.7137242371375
 20
116.4913883005114
 30
0.0
  0
SEQEND
  5
1F4
330
1F1
100
AcDbEntity
  8
Verdeckte Kanten(TC_020513_DIN)
 48
3.093065023422241
  0
POLYLINE
  5
20C
330
37
100
AcDbEntity
  8
Verdeckte Kanten(TC_020513_DIN)
 48
3.093065023422241
100
AcDb2dPolyline
 66
     1
 10
0.0
 20
0.0
 30
0.0
 70
   128
  0
VERTEX
  5
20D
330
20C
100
AcDbEntity
  8
Verdeckte Kanten(TC_020513_DIN)
 48
3.093065023422241
100
AcDbVertex
100
AcDb2dVertex
 10
124.7162602955634
 20
116.4913883005114
 30
0.0
  0
VERTEX
  5
20E
330
20C
100
AcDbEntity
  8
Verdeckte Kanten(TC_020513_DIN)
 48
3.093065023422241
100
AcDbVertex
100
AcDb2dVertex
 10
124.7210948283012
 20
116.4934387002916
 30
0.0
  0
VERTEX
  5
210
330
20C
100
AcDbEntity
  8
Verdeckte Kanten(TC_020513_DIN)
 48
3.093065023422241
100
AcDbVertex
100
AcDb2dVertex
 10
124.7296492869193
 20
116.4998998437853
 30
0.0
  0
VERTEX
  5
211
330
20C
100
AcDbEntity
  8
Verdeckte Kanten(TC_020513_DIN)
 48
3.093065023422241
100
AcDbVertex
100
AcDb2dVertex
 10
124.7416786963279
 20
116.5107478891344
 30
0.0
  0
VERTEX
  5
212
330
20C
100
AcDbEntity
  8
Verdeckte Kanten(TC_020513_DIN)
 48
3.093065023422241
100
AcDbVertex
100
AcDb2dVertex
 10
124.7568373495872
 20
116.5259065423937
 30
0.0
  0
VERTEX
  5
213
330
20C
100
AcDbEntity
  8
Verdeckte Kanten(TC_020513_DIN)
 48
3.093065023422241
100
AcDbVertex
100
AcDb2dVertex
 10
124.7747783476645
 20
116.5453185831041
 30
0.0
  0
VERTEX
  5
214
330
20C
100
AcDbEntity
  8
Verdeckte Kanten(TC_020513_DIN)
 48
3.093065023422241
100
AcDbVertex
100
AcDb2dVertex
 10
124.795136910134
 20
116.5688981805773
 30
0.0
  0
VERTEX
  5
215
330
20C
100
AcDbEntity
  8
Verdeckte Kanten(TC_020513_DIN)
 48
3.093065023422241
100
AcDbVertex
100
AcDb2dVertex
 10
124.8173348719413
 20
116.5963401590319
 30
0.0
  0
VERTEX
  5
216
330
20C
100
AcDbEntity
  8
Verdeckte Kanten(TC_020513_DIN)
 48
3.093065023422241
100
AcDbVertex
100
AcDb2dVertex
 10
124.8407159859473
 20
116.6271295343371
 30
0.0
  0
VERTEX
  5
217
330
20C
100
AcDbEntity
  8
Verdeckte Kanten(TC_020513_DIN)
 48
3.093065023422241
100
AcDbVertex
100
AcDb2dVertex
 10
124.8646323496634
 20
116.660751322362
 30
0.0
  0
VERTEX
  5
218
330
20C
100
AcDbEntity
  8
Verdeckte Kanten(TC_020513_DIN)
 48
3.093065023422241
100
AcDbVertex
100
AcDb2dVertex
 10
124.888436060601
 20
116.6966714654894
 30
0.0
  0
VERTEX
  5
219
330
20C
100
AcDbEntity
  8
Verdeckte Kanten(TC_020513_DIN)
 48
3.093065023422241
100
AcDbVertex
100
AcDb2dVertex
 10
124.9120591694648
 20
116.7352857385607
 30
0.0
  0
VERTEX
  5
21A
330
20C
100
AcDbEntity
  8
Verdeckte Kanten(TC_020513_DIN)
 48
3.093065023422241
100
AcDbVertex
100
AcDb2dVertex
 10
124.9359248692329
 20
116.7780437265368
 30
0.0
  0
VERTEX
  5
21B
330
20C
100
AcDbEntity
  8
Verdeckte Kanten(TC_020513_DIN)
 48
3.093065023422241
100
AcDbVertex
100
AcDb2dVertex
 10
124.9592314774329
 20
116.8246879373522
 30
0.0
  0
VERTEX
  5
21C
330
20C
100
AcDbEntity
  8
Verdeckte Kanten(TC_020513_DIN)
 48
3.093065023422241
100
AcDbVertex
100
AcDb2dVertex
 10
124.9811415488059
 20
116.8749322687121
 30
0.0
  0
VERTEX
  5
21D
330
20C
100
AcDbEntity
  8
Verdeckte Kanten(TC_020513_DIN)
 48
3.093065023422241
100
AcDbVertex
100
AcDb2dVertex
 10
125.0008051211173
 20
116.9284810815783
 30
0.0
  0
VERTEX
  5
21E
330
20C
100
AcDbEntity
  8
Verdeckte Kanten(TC_020513_DIN)
 48
3.093065023422241
100
AcDbVertex
100
AcDb2dVertex
 10
125.0172303730781
 20
116.9849958215685
 30
0.0
  0
VERTEX
  5
21F
330
20C
100
AcDbEntity
  8
Verdeckte Kanten(TC_020513_DIN)
 48
3.093065023422241
100
AcDbVertex
100
AcDb2dVertex
 10
125.029865961724
 20
117.043823221776
 30
0.0
  0
VERTEX
  5
220
330
20C
100
AcDbEntity
  8
Verdeckte Kanten(TC_020513_DIN)
 48
3.093065023422241
100
AcDbVertex
100
AcDb2dVertex
 10
125.0382988268668
 20
117.1042670999498
 30
0.0
  0
VERTEX
  5
221
330
20C
100
AcDbEntity
  8
Verdeckte Kanten(TC_020513_DIN)
 48
3.093065023422241
100
AcDbVertex
100
AcDb2dVertex
 10
125.0421176964576
 20
117.1656217370959
 30
0.0
  0
VERTEX
  5
222
330
20C
100
AcDbEntity
  8
Verdeckte Kanten(TC_020513_DIN)
 48
3.093065023422241
100
AcDbVertex
100
AcDb2dVertex
 10
125.0409649426276
 20
117.2279014383288
 30
0.0
  0
VERTEX
  5
223
330
20C
100
AcDbEntity
  8
Verdeckte Kanten(TC_020513_DIN)
 48
3.093065023422241
100
AcDbVertex
100
AcDb2dVertex
 10
125.0349776560599
 20
117.2922792230578
 30
0.0
  0
VERTEX
  5
224
330
20C
100
AcDbEntity
  8
Verdeckte Kanten(TC_020513_DIN)
 48
3.093065023422241
100
AcDbVertex
100
AcDb2dVertex
 10
125.0245659167106
 20
117.3581208978625
 30
0.0
  0
VERTEX
  5
225
330
20C
100
AcDbEntity
  8
Verdeckte Kanten(TC_020513_DIN)
 48
3.093065023422241
100
AcDbVertex
100
AcDb2dVertex
 10
125.010140400582
 20
117.4247064386339
 30
0.0
  0
VERTEX
  5
226
330
20C
100
AcDbEntity
  8
Verdeckte Kanten(TC_020513_DIN)
 48
3.093065023422241
100
AcDbVertex
100
AcDb2dVertex
 10
124.9921219164664
 20
117.4913062845202
 30
0.0
  0
SEQEND
  5
20F
330
20C
100
AcDbEntity
  8
Verdeckte Kanten(TC_020513_DIN)
 48
3.093065023422241
  0
ELLIPSE
  5
227
330
37
100
AcDbEntity
  8
Verdeckte Kanten(TC_020513_DIN)
 48
2.481296062469482
100
AcDbEllipse
 10
125.7149922663505
 20
119.7273752156941
 30
0.0
 11
0.0000000000000001
 21
-3.236067977499778
 31
0.0
210
0.0
220
0.0
230
1.0
 40
0.3090169943749484
 41
5.475237014002562
 42
6.283185307179586
  0
ELLIPSE
  5
228
330
37
100
AcDbEntity
  8
Verdeckte Kanten(TC_020513_DIN)
 48
2.481296062469482
100
AcDbEllipse
 10
141.7149922663505
 20
119.7273752156941
 30
0.0
 11
-0.0000000000000001
 21
-3.236067977499778
 31
0.0
210
0.0
220
0.0
230
1.0
 40
0.3090169943749484
 41
0.0
 42
0.8079482931770233
  0
ELLIPSE
  5
229
330
37
100
AcDbEntity
  8
Sichtbare Kanten(TC_020513_DIN)
100
AcDbEllipse
 10
125.7149922663505
 20
107.2333036688948
 30
0.0
 11
0.0000000000000056
 21
1.007509825458847
 31
0.0
210
0.0
220
0.0
230
1.0
 40
0.9925461516413223
 41
0.0
 42
1.570796326794919
  0
LINE
  5
22A
330
37
100
AcDbEntity
  8
Sichtbare Kanten(TC_020513_DIN)
100
AcDbLine
 10
124.7149922663504
 20
107.2333036688948
 30
0.0
 11
124.7149922663504
 21
106.8526715300958
 31
0.0
  0
LINE
  5
22B
330
37
100
AcDbEntity
  8
Sichtbare Kanten(TC_020513_DIN)
100
AcDbLine
 10
124.7149922663504
 20
106.8526715300958
 30
0.0
 11
124.7149922663504
 21
102.9913072381944
 31
0.0
  0
LINE
  5
22C
330
37
100
AcDbEntity
  8
Sichtbare Kanten(TC_020513_DIN)
100
AcDbLine
 10
142.7149922663505
 20
102.9913072381944
 30
0.0
 11
142.7149922663505
 21
106.8526715300958
 31
0.0
  0
LINE
  5
22D
330
37
100
AcDbEntity
  8
Sichtbare Kanten(TC_020513_DIN)
100
AcDbLine
 10
142.7149922663505
 20
106.8526715300958
 30
0.0
 11
142.7149922663505
 21
107.2333036688948
 31
0.0
  0
ELLIPSE
  5
22E
330
37
100
AcDbEntity
  8
Sichtbare Kanten(TC_020513_DIN)
100
AcDbEllipse
 10
141.7149922663505
 20
107.2333036688948
 30
0.0
 11
-0.0000000000000056
 21
1.007509825458847
 31
0.0
210
0.0
220
0.0
230
1.0
 40
0.9925461516413223
 41
4.712388980384666
 42
6.283185307179563
  0
LINE
  5
22F
330
37
100
AcDbEntity
  8
Verdeckte Kanten(TC_020513_DIN)
 48
5.713989734649658
100
AcDbLine
 10
124.7149922663504
 20
102.9913072381944
 30
0.0
 11
124.7149922663504
 21
99.99130723819451
 31
0.0
  0
ARC
  5
230
330
37
100
AcDbEntity
  8
Verdeckte Kanten(TC_020513_DIN)
 48
2.991790533065795
100
AcDbCircle
 10
125.7149922663505
 20
99.99130723819449
 30
0.0
 40
0.999999999999992
100
AcDbArc
 50
180.0
 51
270.0
  0
ARC
  5
231
330
37
100
AcDbEntity
  8
Verdeckte Kanten(TC_020513_DIN)
 48
2.991790533065795
100
AcDbCircle
 10
141.7149922663504
 20
99.99130723819451
 30
0.0
 40
1.000000000000003
100
AcDbArc
 50
270.000000000001
 51
0.0
  0
LINE
  5
232
330
37
100
AcDbEntity
  8
Verdeckte Kanten(TC_020513_DIN)
 48
5.713989734649658
100
AcDbLine
 10
142.7149922663505
 20
99.99130723819451
 30
0.0
 11
142.7149922663505
 21
102.9913072381944
 31
0.0
  0
LINE
  5
233
330
37
100
AcDbEntity
  8
Verdeckte Kanten(TC_020513_DIN)
 48
19.35171699523926
100
AcDbLine
 10
141.7149922663505
 20
98.99130723819451
 30
0.0
 11
125.7149922663505
 21
98.99130723819451
 31
0.0
  0
LINE
  5
234
330
37
100
AcDbEntity
  8
Verdeckte Kanten(TC_020513_DIN)
 48
17.41654586791992
100
AcDbLine
 10
124.7149922663504
 20
102.3913072381945
 30
0.0
 11
142.7149922663505
 21
102.3913072381945
 31
0.0
  0
LINE
  5
235
330
37
100
AcDbEntity
  8
Verdeckte Kanten(TC_020513_DIN)
 48
17.41654586791992
100
AcDbLine
 10
124.7149922663504
 20
100.9913072381945
 30
0.0
 11
142.7149922663505
 21
100.9913072381945
 31
0.0
  0
LINE
  5
236
330
37
100
AcDbEntity
  8
Sichtbare Kanten(TC_020513_DIN)
100
AcDbLine
 10
141.7149922663505
 20
108.2408134943537
 30
0.0
 11
125.7149922663505
 21
108.2408134943537
 31
0.0
  0
LINE
  5
237
330
37
100
AcDbEntity
  8
Sichtbare Kanten(TC_020513_DIN)
100
AcDbLine
 10
124.7149922663504
 20
116.4913072381945
 30
0.0
 11
124.7149922663504
 21
107.2333036688948
 31
0.0
  0
LINE
  5
238
330
37
100
AcDbEntity
  8
Sichtbare Kanten(TC_020513_DIN)
100
AcDbLine
 10
142.7149922663505
 20
107.2333036688948
 30
0.0
 11
142.7149922663505
 21
116.4913072381945
 31
0.0
  0
LINE
  5
239
330
37
100
AcDbEntity
  8
Verdeckte Kanten(TC_020513_DIN)
 48
7.618686199188232
100
AcDbLine
 10
142.7149922663505
 20
102.3913072381945
 30
0.0
 11
146.7149922663505
 21
102.3913072381945
 31
0.0
  0
LINE
  5
23A
330
37
100
AcDbEntity
  8
Verdeckte Kanten(TC_020513_DIN)
 48
1.16059410572052
100
AcDbLine
 10
146.7149922663505
 20
102.9913072381944
 30
0.0
 11
146.7149922663505
 21
102.3913072381945
 31
0.0
  0
LINE
  5
23B
330
37
100
AcDbEntity
  8
Verdeckte Kanten(TC_020513_DIN)
 48
1.16059410572052
100
AcDbLine
 10
120.7149922663504
 20
102.3913072381945
 30
0.0
 11
120.7149922663504
 21
102.9913072381945
 31
0.0
  0
LINE
  5
23C
330
37
100
AcDbEntity
  8
Verdeckte Kanten(TC_020513_DIN)
 48
7.618686199188232
100
AcDbLine
 10
120.7149922663504
 20
102.3913072381945
 30
0.0
 11
124.7149922663504
 21
102.3913072381945
 31
0.0
  0
LINE
  5
23D
330
37
100
AcDbEntity
  8
Sichtbare Kanten(TC_020513_DIN)
100
AcDbLine
 10
146.7149922663505
 20
104.9913072381945
 30
0.0
 11
146.7149922663505
 21
102.9913072381944
 31
0.0
  0
LINE
  5
23E
330
37
100
AcDbEntity
  8
Sichtbare Kanten(TC_020513_DIN)
100
AcDbLine
 10
120.7149922663504
 20
102.9913072381944
 30
0.0
 11
120.7149922663504
 21
104.9913072381945
 31
0.0
  0
LINE
  5
23F
330
37
100
AcDbEntity
  8
Sichtbare Kanten(TC_020513_DIN)
100
AcDbLine
 10
142.7149922663505
 20
104.9913072381945
 30
0.0
 11
142.8649922663504
 21
104.9913072381945
 31
0.0
  0
LINE
  5
240
330
37
100
AcDbEntity
  8
Sichtbare Kanten(TC_020513_DIN)
100
AcDbLine
 10
124.5649922663505
 20
104.9913072381945
 30
0.0
 11
124.7149922663504
 21
104.9913072381945
 31
0.0
  0
LINE
  5
241
330
37
100
AcDbEntity
  8
Verdeckte Kanten(TC_020513_DIN)
 48
1.90459656715393
100
AcDbLine
 10
133.2149922663504
 20
81.99130723819449
 30
0.0
 11
132.2149922663505
 21
81.99130723819449
 31
0.0
  0
LINE
  5
242
330
37
100
AcDbEntity
  8
Verdeckte Kanten(TC_020513_DIN)
 48
3.848769903182983
100
AcDbLine
 10
132.2149922663505
 20
81.99130723819449
 30
0.0
 11
131.2046292952686
 21
81.99130723819449
 31
0.0
  0
LINE
  5
243
330
37
100
AcDbEntity
  8
Verdeckte Kanten(TC_020513_DIN)
 48
3.848769903182983
100
AcDbLine
 10
136.2253552374323
 20
81.99130723819449
 30
0.0
 11
135.2149922663505
 21
81.99130723819449
 31
0.0
  0
LINE
  5
244
330
37
100
AcDbEntity
  8
Verdeckte Kanten(TC_020513_DIN)
 48
1.90459656715393
100
AcDbLine
 10
135.2149922663505
 20
81.99130723819449
 30
0.0
 11
134.2149922663505
 21
81.99130723819449
 31
0.0
  0
LINE
  5
245
330
37
100
AcDbEntity
  8
Verdeckte Kanten(TC_020513_DIN)
 48
1.90459656715393
100
AcDbLine
 10
131.2046292952686
 20
81.99130723819449
 30
0.0
 11
131.2046292952686
 21
80.99130723819449
 31
0.0
  0
LINE
  5
246
330
37
100
AcDbEntity
  8
Verdeckte Kanten(TC_020513_DIN)
 48
1.90459656715393
100
AcDbLine
 10
132.2149922663505
 20
80.99130723819449
 30
0.0
 11
132.2149922663505
 21
81.99130723819449
 31
0.0
  0
LINE
  5
247
330
37
100
AcDbEntity
  8
Verdeckte Kanten(TC_020513_DIN)
 48
3.848769903182983
100
AcDbLine
 10
131.2046292952686
 20
80.99130723819449
 30
0.0
 11
132.2149922663505
 21
80.99130723819449
 31
0.0
  0
LINE
  5
248
330
37
100
AcDbEntity
  8
Verdeckte Kanten(TC_020513_DIN)
 48
1.90459656715393
100
AcDbLine
 10
132.2149922663505
 20
80.99130723819449
 30
0.0
 11
133.2149922663504
 21
80.99130723819449
 31
0.0
  0
LINE
  5
249
330
37
100
AcDbEntity
  8
Verdeckte Kanten(TC_020513_DIN)
 48
1.90459656715393
100
AcDbLine
 10
136.2253552374323
 20
80.99130723819449
 30
0.0
 11
136.2253552374323
 21
81.99130723819449
 31
0.0
  0
LINE
  5
24A
330
37
100
AcDbEntity
  8
Verdeckte Kanten(TC_020513_DIN)
 48
3.848769903182983
100
AcDbLine
 10
135.2149922663505
 20
80.99130723819449
 30
0.0
 11
136.2253552374323
 21
80.99130723819449
 31
0.0
  0
LINE
  5
24B
330
37
100
AcDbEntity
  8
Verdeckte Kanten(TC_020513_DIN)
 48
1.90459656715393
100
AcDbLine
 10
135.2149922663505
 20
81.99130723819449
 30
0.0
 11
135.2149922663505
 21
80.99130723819449
 31
0.0
  0
LINE
  5
24C
330
37
100
AcDbEntity
  8
Verdeckte Kanten(TC_020513_DIN)
 48
1.90459656715393
100
AcDbLine
 10
134.2149922663505
 20
80.99130723819449
 30
0.0
 11
135.2149922663505
 21
80.99130723819449
 31
0.0
  0
LINE
  5
24D
330
37
100
AcDbEntity
  8
Verdeckte Kanten(TC_020513_DIN)
 48
2.916159868240356
100
AcDbLine
 10
134.2149922663505
 20
78.02720562305673
 30
0.0
 11
134.2149922663505
 21
79.55829453630227
 31
0.0
  0
LINE
  5
24E
330
37
100
AcDbEntity
  8
Verdeckte Kanten(TC_020513_DIN)
 48
2.916159868240356
100
AcDbLine
 10
134.2149922663505
 20
83.42431994008672
 30
0.0
 11
134.2149922663505
 21
84.95540885333227
 31
0.0
  0
LINE
  5
24F
330
37
100
AcDbEntity
  8
Verdeckte Kanten(TC_020513_DIN)
 48
2.916159868240356
100
AcDbLine
 10
133.2149922663504
 20
79.55829453630227
 30
0.0
 11
133.2149922663504
 21
78.02720562305673
 31
0.0
  0
LINE
  5
250
330
37
100
AcDbEntity
  8
Verdeckte Kanten(TC_020513_DIN)
 48
2.916159868240356
100
AcDbLine
 10
133.2149922663504
 20
84.95540885333227
 30
0.0
 11
133.2149922663504
 21
83.42431994008672
 31
0.0
  0
LINE
  5
251
330
37
100
AcDbEntity
  8
Verdeckte Kanten(TC_020513_DIN)
 48
1.649415612220764
100
AcDbLine
 10
134.2149922663505
 20
79.55829453630227
 30
0.0
 11
134.2149922663505
 21
79.99130723819449
 31
0.0
  0
LINE
  5
252
330
37
100
AcDbEntity
  8
Verdeckte Kanten(TC_020513_DIN)
 48
1.90459656715393
100
AcDbLine
 10
134.2149922663505
 20
79.99130723819449
 30
0.0
 11
134.2149922663505
 21
80.99130723819449
 31
0.0
  0
LINE
  5
253
330
37
100
AcDbEntity
  8
Verdeckte Kanten(TC_020513_DIN)
 48
1.90459656715393
100
AcDbLine
 10
134.2149922663505
 20
81.99130723819449
 30
0.0
 11
134.2149922663505
 21
82.99130723819448
 31
0.0
  0
LINE
  5
254
330
37
100
AcDbEntity
  8
Verdeckte Kanten(TC_020513_DIN)
 48
1.649415612220764
100
AcDbLine
 10
134.2149922663505
 20
82.99130723819448
 30
0.0
 11
134.2149922663505
 21
83.42431994008672
 31
0.0
  0
LINE
  5
255
330
37
100
AcDbEntity
  8
Verdeckte Kanten(TC_020513_DIN)
 48
1.90459656715393
100
AcDbLine
 10
133.2149922663504
 20
80.99130723819449
 30
0.0
 11
133.2149922663504
 21
79.99130723819449
 31
0.0
  0
LINE
  5
256
330
37
100
AcDbEntity
  8
Verdeckte Kanten(TC_020513_DIN)
 48
1.649415612220764
100
AcDbLine
 10
133.2149922663504
 20
79.99130723819449
 30
0.0
 11
133.2149922663504
 21
79.55829453630227
 31
0.0
  0
LINE
  5
257
330
37
100
AcDbEntity
  8
Verdeckte Kanten(TC_020513_DIN)
 48
1.90459656715393
100
AcDbLine
 10
133.2149922663504
 20
79.55829453630227
 30
0.0
 11
134.2149922663505
 21
79.55829453630227
 31
0.0
  0
LINE
  5
258
330
37
100
AcDbEntity
  8
Verdeckte Kanten(TC_020513_DIN)
 48
1.90459656715393
100
AcDbLine
 10
134.2149922663505
 20
79.99130723819449
 30
0.0
 11
133.2149922663504
 21
79.99130723819449
 31
0.0
  0
LINE
  5
259
330
37
100
AcDbEntity
  8
Verdeckte Kanten(TC_020513_DIN)
 48
1.90459656715393
100
AcDbLine
 10
134.2149922663505
 20
83.42431994008672
 30
0.0
 11
133.2149922663504
 21
83.42431994008672
 31
0.0
  0
LINE
  5
25A
330
37
100
AcDbEntity
  8
Verdeckte Kanten(TC_020513_DIN)
 48
1.90459656715393
100
AcDbLine
 10
133.2149922663504
 20
82.99130723819448
 30
0.0
 11
134.2149922663505
 21
82.99130723819448
 31
0.0
  0
LINE
  5
25B
330
37
100
AcDbEntity
  8
Verdeckte Kanten(TC_020513_DIN)
 48
1.649415612220764
100
AcDbLine
 10
133.2149922663504
 20
83.42431994008672
 30
0.0
 11
133.2149922663504
 21
82.99130723819448
 31
0.0
  0
LINE
  5
25C
330
37
100
AcDbEntity
  8
Verdeckte Kanten(TC_020513_DIN)
 48
1.90459656715393
100
AcDbLine
 10
133.2149922663504
 20
82.99130723819448
 30
0.0
 11
133.2149922663504
 21
81.99130723819449
 31
0.0
  0
LINE
  5
25D
330
37
100
AcDbEntity
  8
Sichtbare Kanten(TC_020513_DIN)
100
AcDbLine
 10
169.9649922663505
 20
73.9913072381945
 30
0.0
 11
174.9649922663505
 21
73.9913072381945
 31
0.0
  0
LINE
  5
25E
330
37
100
AcDbEntity
  8
Sichtbare Kanten(TC_020513_DIN)
100
AcDbLine
 10
169.9649922663505
 20
73.9913072381945
 30
0.0
 11
97.4649922663505
 21
73.9913072381945
 31
0.0
  0
LINE
  5
25F
330
37
100
AcDbEntity
  8
Sichtbare Kanten(TC_020513_DIN)
100
AcDbLine
 10
92.4649922663505
 20
73.9913072381945
 30
0.0
 11
97.4649922663505
 21
73.9913072381945
 31
0.0
  0
LINE
  5
260
330
37
100
AcDbEntity
  8
Sichtbare Kanten(TC_020513_DIN)
100
AcDbLine
 10
92.4649922663505
 20
73.9913072381945
 30
0.0
 11
92.4649922663505
 21
77.49130723819449
 31
0.0
  0
LINE
  5
261
330
37
100
AcDbEntity
  8
Sichtbare Kanten(TC_020513_DIN)
100
AcDbLine
 10
174.9649922663505
 20
73.9913072381945
 30
0.0
 11
174.9649922663505
 21
77.49130723819449
 31
0.0
  0
LINE
  5
262
330
37
100
AcDbEntity
  8
Verdeckte Kanten(TC_020513_DIN)
 48
6.666337966918945
100
AcDbLine
 10
107.7149922663505
 20
73.9913072381945
 30
0.0
 11
107.7149922663505
 21
77.49130723819449
 31
0.0
  0
LINE
  5
263
330
37
100
AcDbEntity
  8
Verdeckte Kanten(TC_020513_DIN)
 48
6.666337966918945
100
AcDbLine
 10
159.7149922663505
 20
73.9913072381945
 30
0.0
 11
159.7149922663505
 21
77.49130723819449
 31
0.0
  0
LINE
  5
264
330
37
100
AcDbEntity
  8
Verdeckte Kanten(TC_020513_DIN)
 48
2.856944799423217
100
AcDbLine
 10
166.4649922663504
 20
73.9913072381945
 30
0.0
 11
166.4649922663504
 21
75.49130723819449
 31
0.0
  0
LINE
  5
265
330
37
100
AcDbEntity
  8
Verdeckte Kanten(TC_020513_DIN)
 48
2.856944799423217
100
AcDbLine
 10
170.9649922663505
 20
73.9913072381945
 30
0.0
 11
170.9649922663505
 21
75.49130723819449
 31
0.0
  0
LINE
  5
266
330
37
100
AcDbEntity
  8
Verdeckte Kanten(TC_020513_DIN)
 48
2.856944799423217
100
AcDbLine
 10
96.4649922663505
 20
73.9913072381945
 30
0.0
 11
96.4649922663505
 21
75.49130723819449
 31
0.0
  0
LINE
  5
267
330
37
100
AcDbEntity
  8
Verdeckte Kanten(TC_020513_DIN)
 48
2.856944799423217
100
AcDbLine
 10
100.9649922663504
 20
73.9913072381945
 30
0.0
 11
100.9649922663504
 21
75.49130723819449
 31
0.0
  0
LINE
  5
268
330
37
100
AcDbEntity
  8
Sichtbare Kanten(TC_020513_DIN)
100
AcDbLine
 10
92.4649922663505
 20
77.49130723819449
 30
0.0
 11
97.4649922663505
 21
77.49130723819449
 31
0.0
  0
LINE
  5
269
330
37
100
AcDbEntity
  8
Sichtbare Kanten(TC_020513_DIN)
100
AcDbLine
 10
169.9649922663505
 20
77.49130723819449
 30
0.0
 11
97.4649922663505
 21
77.49130723819449
 31
0.0
  0
LINE
  5
26A
330
37
100
AcDbEntity
  8
Sichtbare Kanten(TC_020513_DIN)
100
AcDbLine
 10
169.9649922663505
 20
77.49130723819449
 30
0.0
 11
174.9649922663505
 21
77.49130723819449
 31
0.0
  0
LINE
  5
26B
330
37
100
AcDbEntity
  8
Verdeckte Kanten(TC_020513_DIN)
 48
17.09865379333496
100
AcDbLine
 10
166.4649922663504
 20
75.49130723819449
 30
0.0
 11
170.9649922663505
 21
75.49130723819449
 31
0.0
  0
LINE
  5
26C
330
37
100
AcDbEntity
  8
Verdeckte Kanten(TC_020513_DIN)
 48
17.09865379333496
100
AcDbLine
 10
96.4649922663505
 20
75.49130723819449
 30
0.0
 11
100.9649922663504
 21
75.49130723819449
 31
0.0
  0
LINE
  5
26D
330
37
100
AcDbEntity
  8
Verdeckte Kanten(TC_020513_DIN)
 48
8.571034431457519
100
AcDbLine
 10
166.5149922663505
 20
75.49130723819449
 30
0.0
 11
166.5149922663505
 21
79.99130723819449
 31
0.0
  0
LINE
  5
26E
330
37
100
AcDbEntity
  8
Verdeckte Kanten(TC_020513_DIN)
 48
8.571034431457519
100
AcDbLine
 10
170.9149922663504
 20
75.49130723819449
 30
0.0
 11
170.9149922663504
 21
79.99130723819449
 31
0.0
  0
LINE
  5
26F
330
37
100
AcDbEntity
  8
Verdeckte Kanten(TC_020513_DIN)
 48
8.571034431457519
100
AcDbLine
 10
96.51499226635047
 20
75.49130723819449
 30
0.0
 11
96.51499226635047
 21
79.99130723819449
 31
0.0
  0
LINE
  5
270
330
37
100
AcDbEntity
  8
Verdeckte Kanten(TC_020513_DIN)
 48
8.571034431457519
100
AcDbLine
 10
100.9149922663505
 20
75.49130723819449
 30
0.0
 11
100.9149922663505
 21
79.99130723819449
 31
0.0
  0
LINE
  5
271
330
37
100
AcDbEntity
  8
Sichtbare Kanten(TC_020513_DIN)
100
AcDbLine
 10
93.46499226635048
 20
77.49130723819449
 30
0.0
 11
93.46499226635049
 21
78.9913072381945
 31
0.0
  0
LINE
  5
272
330
37
100
AcDbEntity
  8
Sichtbare Kanten(TC_020513_DIN)
100
AcDbLine
 10
173.9649922663504
 20
77.49130723819449
 30
0.0
 11
173.9649922663505
 21
78.9913072381945
 31
0.0
  0
LINE
  5
273
330
37
100
AcDbEntity
  8
Verdeckte Kanten(TC_020513_DIN)
 48
8.975571632385253
100
AcDbLine
 10
109.7149922663505
 20
82.99130723819448
 30
0.0
 11
106.7149922663505
 21
82.99130723819448
 31
0.0
  0
LINE
  5
274
330
37
100
AcDbEntity
  8
Verdeckte Kanten(TC_020513_DIN)
 48
19.35171699523926
100
AcDbLine
 10
106.7149922663505
 20
90.99130723819449
 30
0.0
 11
106.7149922663505
 21
82.99130723819448
 31
0.0
  0
LINE
  5
275
330
37
100
AcDbEntity
  8
Verdeckte Kanten(TC_020513_DIN)
 48
8.975571632385253
100
AcDbLine
 10
106.7149922663505
 20
90.99130723819449
 30
0.0
 11
109.7149922663505
 21
90.99130723819449
 31
0.0
  0
LINE
  5
276
330
37
100
AcDbEntity
  8
Verdeckte Kanten(TC_020513_DIN)
 48
8.571034431457519
100
AcDbLine
 10
114.2149922663505
 20
90.99130723819449
 30
0.0
 11
109.7149922663505
 21
90.99130723819449
 31
0.0
  0
LINE
  5
277
330
37
100
AcDbEntity
  8
Verdeckte Kanten(TC_020513_DIN)
 48
19.35171699523926
100
AcDbLine
 10
114.2149922663505
 20
82.99130723819448
 30
0.0
 11
114.2149922663505
 21
90.99130723819449
 31
0.0
  0
LINE
  5
278
330
37
100
AcDbEntity
  8
Verdeckte Kanten(TC_020513_DIN)
 48
8.571034431457519
100
AcDbLine
 10
109.7149922663505
 20
82.99130723819448
 30
0.0
 11
114.2149922663505
 21
82.99130723819448
 31
0.0
  0
LINE
  5
279
330
37
100
AcDbEntity
  8
Verdeckte Kanten(TC_020513_DIN)
 48
10.47573089599609
100
AcDbLine
 10
106.7149922663505
 20
77.49130723819449
 30
0.0
 11
106.7149922663505
 21
82.99130723819448
 31
0.0
  0
LINE
  5
27A
330
37
100
AcDbEntity
  8
Verdeckte Kanten(TC_020513_DIN)
 48
15.72327041625976
100
AcDbLine
 10
160.7149922663504
 20
90.99130723819449
 30
0.0
 11
160.7149922663504
 21
97.49130723819449
 31
0.0
  0
LINE
  5
27B
330
37
100
AcDbEntity
  8
Verdeckte Kanten(TC_020513_DIN)
 48
10.47573089599609
100
AcDbLine
 10
160.7149922663504
 20
77.49130723819449
 30
0.0
 11
160.7149922663504
 21
82.99130723819448
 31
0.0
  0
LINE
  5
27C
330
37
100
AcDbEntity
  8
Verdeckte Kanten(TC_020513_DIN)
 48
15.72327041625976
100
AcDbLine
 10
106.7149922663505
 20
90.99130723819449
 30
0.0
 11
106.7149922663505
 21
97.49130723819449
 31
0.0
  0
LINE
  5
27D
330
37
100
AcDbEntity
  8
Sichtbare Kanten(TC_020513_DIN)
100
AcDbLine
 10
103.7149922663505
 20
80.99130723819449
 30
0.0
 11
103.7149922663505
 21
97.49130723819449
 31
0.0
  0
LINE
  5
27E
330
37
100
AcDbEntity
  8
Sichtbare Kanten(TC_020513_DIN)
100
AcDbLine
 10
163.7149922663505
 20
80.99130723819449
 30
0.0
 11
163.7149922663505
 21
97.49130723819449
 31
0.0
  0
LINE
  5
27F
330
37
100
AcDbEntity
  8
Verdeckte Kanten(TC_020513_DIN)
 48
8.975571632385253
100
AcDbLine
 10
157.7149922663505
 20
90.99130723819449
 30
0.0
 11
160.7149922663504
 21
90.99130723819449
 31
0.0
  0
LINE
  5
280
330
37
100
AcDbEntity
  8
Verdeckte Kanten(TC_020513_DIN)
 48
19.35171699523926
100
AcDbLine
 10
160.7149922663504
 20
82.99130723819448
 30
0.0
 11
160.7149922663504
 21
90.99130723819449
 31
0.0
  0
LINE
  5
281
330
37
100
AcDbEntity
  8
Verdeckte Kanten(TC_020513_DIN)
 48
8.975571632385253
100
AcDbLine
 10
160.7149922663504
 20
82.99130723819448
 30
0.0
 11
157.7149922663505
 21
82.99130723819448
 31
0.0
  0
LINE
  5
282
330
37
100
AcDbEntity
  8
Verdeckte Kanten(TC_020513_DIN)
 48
8.571034431457519
100
AcDbLine
 10
157.7149922663505
 20
90.99130723819449
 30
0.0
 11
153.2149922663505
 21
90.99130723819449
 31
0.0
  0
LINE
  5
283
330
37
100
AcDbEntity
  8
Verdeckte Kanten(TC_020513_DIN)
 48
19.35171699523926
100
AcDbLine
 10
153.2149922663505
 20
90.99130723819449
 30
0.0
 11
153.2149922663505
 21
82.99130723819448
 31
0.0
  0
LINE
  5
284
330
37
100
AcDbEntity
  8
Verdeckte Kanten(TC_020513_DIN)
 48
8.571034431457519
100
AcDbLine
 10
153.2149922663505
 20
82.99130723819448
 30
0.0
 11
157.7149922663505
 21
82.99130723819448
 31
0.0
  0
LINE
  5
285
330
37
100
AcDbEntity
  8
Sichtbare Kanten(TC_020513_DIN)
100
AcDbLine
 10
169.9649922663505
 20
79.99130723819449
 30
0.0
 11
162.6139717519168
 21
79.99130723819449
 31
0.0
  0
LINE
  5
286
330
37
100
AcDbEntity
  8
Sichtbare Kanten(TC_020513_DIN)
100
AcDbLine
 10
169.9649922663505
 20
79.99130723819449
 30
0.0
 11
172.9649922663505
 21
79.99130723819449
 31
0.0
  0
LINE
  5
287
330
37
100
AcDbEntity
  8
Sichtbare Kanten(TC_020513_DIN)
100
AcDbLine
 10
104.8160127807841
 20
79.99130723819449
 30
0.0
 11
97.4649922663505
 21
79.99130723819449
 31
0.0
  0
LINE
  5
288
330
37
100
AcDbEntity
  8
Sichtbare Kanten(TC_020513_DIN)
100
AcDbLine
 10
94.46499226635049
 20
79.99130723819449
 30
0.0
 11
97.4649922663505
 21
79.99130723819449
 31
0.0
  0
ARC
  5
289
330
37
100
AcDbEntity
  8
Sichtbare Kanten(TC_020513_DIN)
100
AcDbCircle
 10
94.46499226635053
 20
78.9913072381945
 30
0.0
 40
1.000000000000005
100
AcDbArc
 50
90.0
 51
180.0
  0
ARC
  5
28A
330
37
100
AcDbEntity
  8
Sichtbare Kanten(TC_020513_DIN)
100
AcDbCircle
 10
172.9649922663505
 20
78.9913072381945
 30
0.0
 40
1.000000000000009
100
AcDbArc
 50
0.0
 51
90.0
  0
ARC
  5
28B
330
37
100
AcDbEntity
  8
Sichtbare Kanten(TC_020513_DIN)
100
AcDbCircle
 10
102.7149922663504
 20
80.99130723819449
 30
0.0
 40
1.000000000000001
100
AcDbArc
 50
270.0
 51
0.0
  0
ARC
  5
28C
330
37
100
AcDbEntity
  8
Sichtbare Kanten(TC_020513_DIN)
100
AcDbCircle
 10
164.7149922663505
 20
80.99130723819449
 30
0.0
 40
1.000000000000005
100
AcDbArc
 50
180.0
 51
270.0
  0
LINE
  5
28D
330
37
100
AcDbEntity
  8
Sichtbare Kanten(TC_020513_DIN)
100
AcDbLine
 10
136.3399922663504
 20
86.39587434567749
 30
0.0
 11
136.3399922663505
 21
91.58674013071149
 31
0.0
  0
ARC
  5
28E
330
37
100
AcDbEntity
  8
Sichtbare Kanten(TC_020513_DIN)
100
AcDbCircle
 10
136.7149922663505
 20
91.58674013071149
 30
0.0
 40
0.374999999999998
100
AcDbArc
 50
60.01836063114994
 51
180.0
  0
LINE
  5
28F
330
37
100
AcDbEntity
  8
Sichtbare Kanten(TC_020513_DIN)
100
AcDbLine
 10
136.902388186409
 20
91.91155972547973
 30
0.0
 11
139.1523881864091
 21
90.61348280240279
 31
0.0
  0
ARC
  5
290
330
37
100
AcDbEntity
  8
Sichtbare Kanten(TC_020513_DIN)
100
AcDbCircle
 10
138.9649922663505
 20
90.28866320763455
 30
0.0
 40
0.3750000000000018
100
AcDbArc
 50
240.0183606311499
 51
60.01836063114996
  0
LINE
  5
291
330
37
100
AcDbEntity
  8
Sichtbare Kanten(TC_020513_DIN)
100
AcDbLine
 10
138.7775963462919
 20
89.96384361286633
 30
0.0
 11
137.0899922663505
 21
90.93746135129407
 31
0.0
  0
LINE
  5
292
330
37
100
AcDbEntity
  8
Sichtbare Kanten(TC_020513_DIN)
100
AcDbLine
 10
137.0899922663505
 20
90.93746135129407
 30
0.0
 11
137.0899922663505
 21
89.36630723819449
 31
0.0
  0
LINE
  5
293
330
37
100
AcDbEntity
  8
Sichtbare Kanten(TC_020513_DIN)
100
AcDbLine
 10
137.0899922663505
 20
89.36630723819449
 30
0.0
 11
138.9649922663505
 21
89.36630723819449
 31
0.0
  0
ARC
  5
294
330
37
100
AcDbEntity
  8
Sichtbare Kanten(TC_020513_DIN)
100
AcDbCircle
 10
138.9649922663505
 20
88.99130723819451
 30
0.0
 40
0.3750000000000009
100
AcDbArc
 50
270.0
 51
90.0
  0
LINE
  5
295
330
37
100
AcDbEntity
  8
Sichtbare Kanten(TC_020513_DIN)
100
AcDbLine
 10
138.9649922663505
 20
88.61630723819448
 30
0.0
 11
137.0899922663505
 21
88.61630723819448
 31
0.0
  0
LINE
  5
296
330
37
100
AcDbEntity
  8
Sichtbare Kanten(TC_020513_DIN)
100
AcDbLine
 10
137.0899922663505
 20
88.61630723819448
 30
0.0
 11
137.0899922663505
 21
87.0451531250949
 31
0.0
  0
LINE
  5
297
330
37
100
AcDbEntity
  8
Sichtbare Kanten(TC_020513_DIN)
100
AcDbLine
 10
137.0899922663505
 20
87.0451531250949
 30
0.0
 11
138.7775963462919
 21
88.01877086352265
 31
0.0
  0
ARC
  5
298
330
37
100
AcDbEntity
  8
Sichtbare Kanten(TC_020513_DIN)
100
AcDbCircle
 10
138.9649922663505
 20
87.69395126875441
 30
0.0
 40
0.374999999999998
100
AcDbArc
 50
299.9816393688501
 51
119.98163936885
  0
LINE
  5
299
330
37
100
AcDbEntity
  8
Sichtbare Kanten(TC_020513_DIN)
100
AcDbLine
 10
139.1523881864091
 20
87.36913167398618
 30
0.0
 11
136.902388186409
 21
86.07105475090927
 31
0.0
  0
ARC
  5
29A
330
37
100
AcDbEntity
  8
Sichtbare Kanten(TC_020513_DIN)
100
AcDbCircle
 10
136.7149922663505
 20
86.39587434567749
 30
0.0
 40
0.3749999999999993
100
AcDbArc
 50
180.0
 51
299.9816393688501
  0
ARC
  5
29B
330
37
100
AcDbEntity
  8
Sichtbare Kanten(TC_020513_DIN)
100
AcDbCircle
 10
129.1399922663504
 20
90.67808628455765
 30
0.0
 40
0.3749999999999998
100
AcDbArc
 50
0.0
 51
180.0
  0
LINE
  5
29C
330
37
100
AcDbEntity
  8
Sichtbare Kanten(TC_020513_DIN)
100
AcDbLine
 10
129.5149922663505
 20
90.67808628455763
 30
0.0
 11
129.5149922663505
 21
87.30452819183135
 31
0.0
  0
ARC
  5
29D
330
37
100
AcDbEntity
  8
Sichtbare Kanten(TC_020513_DIN)
100
AcDbCircle
 10
129.1399922663504
 20
87.30452819183135
 30
0.0
 40
0.3749999999999998
100
AcDbArc
 50
180.0
 51
0.0
  0
LINE
  5
29E
330
37
100
AcDbEntity
  8
Sichtbare Kanten(TC_020513_DIN)
100
AcDbLine
 10
128.7649922663505
 20
87.30452819183135
 30
0.0
 11
128.7649922663505
 21
90.67808628455763
 31
0.0
  0
LINE
  5
29F
330
37
100
AcDbEntity
  8
Sichtbare Kanten(TC_020513_DIN)
100
AcDbLine
 10
124.7154088173406
 20
88.99130723819451
 30
0.0
 11
133.7149922663505
 21
83.79923986376574
 31
0.0
  0
LINE
  5
2A0
330
37
100
AcDbEntity
  8
Sichtbare Kanten(TC_020513_DIN)
100
AcDbLine
 10
133.7149922663505
 20
83.79923986376574
 30
0.0
 11
142.7145757153603
 21
88.99130723819451
 31
0.0
  0
LINE
  5
2A1
330
37
100
AcDbEntity
  8
Sichtbare Kanten(TC_020513_DIN)
100
AcDbLine
 10
142.7145757153603
 20
88.99130723819451
 30
0.0
 11
133.7149922663505
 21
94.18337461262323
 31
0.0
  0
LINE
  5
2A2
330
37
100
AcDbEntity
  8
Sichtbare Kanten(TC_020513_DIN)
100
AcDbLine
 10
133.7149922663505
 20
94.18337461262323
 30
0.0
 11
124.7154088173406
 21
88.99130723819451
 31
0.0
  0
LINE
  5
2A3
330
37
100
AcDbEntity
  8
Sichtbare Kanten(TC_020513_DIN)
100
AcDbLine
 10
130.2649922663505
 20
86.43914357644673
 30
0.0
 11
130.2649922663505
 21
91.54347089994224
 31
0.0
  0
ARC
  5
2A4
330
37
100
AcDbEntity
  8
Sichtbare Kanten(TC_020513_DIN)
100
AcDbCircle
 10
130.6399922663505
 20
91.54347089994224
 30
0.0
 40
0.3749999999999998
100
AcDbArc
 50
0.0
 51
180.0
  0
LINE
  5
2A5
330
37
100
AcDbEntity
  8
Sichtbare Kanten(TC_020513_DIN)
100
AcDbLine
 10
131.0149922663504
 20
91.54347089994224
 30
0.0
 11
131.0149922663504
 21
86.65573004817183
 31
0.0
  0
LINE
  5
2A6
330
37
100
AcDbEntity
  8
Sichtbare Kanten(TC_020513_DIN)
100
AcDbLine
 10
131.0149922663504
 20
86.65573004817183
 30
0.0
 11
133.902388186409
 21
84.9899247096765
 31
0.0
  0
ARC
  5
2A7
330
37
100
AcDbEntity
  8
Sichtbare Kanten(TC_020513_DIN)
100
AcDbCircle
 10
133.7149922663505
 20
84.66510511490826
 30
0.0
 40
0.3750000000000005
100
AcDbArc
 50
240.0183606311499
 51
60.01836063114996
  0
LINE
  5
2A8
330
37
100
AcDbEntity
  8
Sichtbare Kanten(TC_020513_DIN)
100
AcDbLine
 10
133.5275963462919
 20
84.34028552014003
 30
0.0
 11
130.4525963462919
 21
86.11432398167851
 31
0.0
  0
ARC
  5
2A9
330
37
100
AcDbEntity
  8
Sichtbare Kanten(TC_020513_DIN)
100
AcDbCircle
 10
130.6399922663505
 20
86.43914357644673
 30
0.0
 40
0.3749999999999946
100
AcDbArc
 50
180.0
 51
240.0183606311523
  0
LINE
  5
2AA
330
37
100
AcDbEntity
  8
Sichtbare Kanten(TC_020513_DIN)
100
AcDbLine
 10
134.8399922663505
 20
91.29488705188059
 30
0.0
 11
133.7149922663505
 21
89.74130723819449
 31
0.0
  0
LINE
  5
2AB
330
37
100
AcDbEntity
  8
Sichtbare Kanten(TC_020513_DIN)
100
AcDbLine
 10
133.7149922663505
 20
89.74130723819449
 30
0.0
 11
132.5899922663505
 21
91.29488705188059
 31
0.0
  0
LINE
  5
2AC
330
37
100
AcDbEntity
  8
Sichtbare Kanten(TC_020513_DIN)
100
AcDbLine
 10
132.5899922663505
 20
91.29488705188059
 30
0.0
 11
132.5899922663505
 21
87.30452819183135
 31
0.0
  0
ARC
  5
2AD
330
37
100
AcDbEntity
  8
Sichtbare Kanten(TC_020513_DIN)
100
AcDbCircle
 10
132.2149922663505
 20
87.30452819183135
 30
0.0
 40
0.3749999999999987
100
AcDbArc
 50
180.0
 51
0.0
  0
LINE
  5
2AE
330
37
100
AcDbEntity
  8
Sichtbare Kanten(TC_020513_DIN)
100
AcDbLine
 10
131.8399922663505
 20
87.30452819183135
 30
0.0
 11
131.8399922663505
 21
92.4521247460961
 31
0.0
  0
ARC
  5
2AF
330
37
100
AcDbEntity
  8
Sichtbare Kanten(TC_020513_DIN)
100
AcDbCircle
 10
132.2149922663505
 20
92.45212474609608
 30
0.0
 40
0.3750000000000003
100
AcDbArc
 50
35.90957617703186
 51
180.0
  0
LINE
  5
2B0
330
37
100
AcDbEntity
  8
Sichtbare Kanten(TC_020513_DIN)
100
AcDbLine
 10
132.518721125841
 20
92.6720651469154
 30
0.0
 11
133.7149922663505
 21
91.0200627508348
 31
0.0
  0
LINE
  5
2B1
330
37
100
AcDbEntity
  8
Sichtbare Kanten(TC_020513_DIN)
100
AcDbLine
 10
133.7149922663505
 20
91.0200627508348
 30
0.0
 11
134.9112634068599
 21
92.6720651469154
 31
0.0
  0
ARC
  5
2B2
330
37
100
AcDbEntity
  8
Sichtbare Kanten(TC_020513_DIN)
100
AcDbCircle
 10
135.2149922663505
 20
92.4521247460961
 30
0.0
 40
0.3749999999999998
100
AcDbArc
 50
0.0
 51
144.0904238229697
  0
LINE
  5
2B3
330
37
100
AcDbEntity
  8
Sichtbare Kanten(TC_020513_DIN)
100
AcDbLine
 10
135.5899922663505
 20
92.4521247460961
 30
0.0
 11
135.5899922663505
 21
85.53048973029289
 31
0.0
  0
ARC
  5
2B4
330
37
100
AcDbEntity
  8
Sichtbare Kanten(TC_020513_DIN)
100
AcDbCircle
 10
135.2149922663505
 20
85.53048973029289
 30
0.0
 40
0.375
100
AcDbArc
 50
180.0
 51
0.0
  0
LINE
  5
2B5
330
37
100
AcDbEntity
  8
Sichtbare Kanten(TC_020513_DIN)
100
AcDbLine
 10
134.8399922663505
 20
85.53048973029289
 30
0.0
 11
134.8399922663505
 21
91.29488705188059
 31
0.0
  0
LINE
  5
2B6
330
37
100
AcDbEntity
  8
Sichtbare Kanten(TC_020513_DIN)
100
AcDbLine
 10
133.7149922663505
 20
83.36630723819451
 30
0.0
 11
123.9649922663505
 21
88.99130723819451
 31
0.0
  0
LINE
  5
2B7
330
37
100
AcDbEntity
  8
Sichtbare Kanten(TC_020513_DIN)
100
AcDbLine
 10
123.9649922663505
 20
88.99130723819451
 30
0.0
 11
133.7149922663505
 21
94.61630723819451
 31
0.0
  0
LINE
  5
2B8
330
37
100
AcDbEntity
  8
Sichtbare Kanten(TC_020513_DIN)
100
AcDbLine
 10
133.7149922663505
 20
94.61630723819451
 30
0.0
 11
143.4649922663505
 21
88.99130723819448
 31
0.0
  0
LINE
  5
2B9
330
37
100
AcDbEntity
  8
Sichtbare Kanten(TC_020513_DIN)
100
AcDbLine
 10
143.4649922663505
 20
88.99130723819448
 30
0.0
 11
133.7149922663505
 21
83.36630723819451
 31
0.0
  0
CIRCLE
  5
2BA
330
37
100
AcDbEntity
  8
Verdeckte Kanten(TC_020513_DIN)
 48
20.26507186889649
100
AcDbCircle
 10
133.7149922663505
 20
81.49130723819451
 30
0.0
 40
1.999999999999999
  0
CIRCLE
  5
2BB
330
37
100
AcDbEntity
  8
Verdeckte Kanten(TC_020513_DIN)
 48
18.99850463867187
100
AcDbCircle
 10
133.7149922663505
 20
81.49130723819451
 30
0.0
 40
2.499999999999996
  0
LINE
  5
2BC
330
37
100
AcDbEntity
  8
Verdeckte Kanten(TC_020513_DIN)
 48
9.274760246276855
100
AcDbLine
 10
113.2649922663505
 20
88.99130723819451
 30
0.0
 11
110.1649922663505
 21
88.99130723819451
 31
0.0
  0
LINE
  5
2BD
330
37
100
AcDbEntity
  8
Verdeckte Kanten(TC_020513_DIN)
 48
9.274760246276855
100
AcDbLine
 10
157.2649922663505
 20
88.99130723819451
 30
0.0
 11
154.1649922663504
 21
88.99130723819451
 31
0.0
  0
LINE
  5
2BE
330
37
100
AcDbEntity
  8
Verdeckte Kanten(TC_020513_DIN)
 48
14.5137882232666
100
AcDbLine
 10
110.4849922663504
 20
82.99130723819448
 30
0.0
 11
110.4849922663504
 21
88.99130723819451
 31
0.0
  0
LINE
  5
2BF
330
37
100
AcDbEntity
  8
Verdeckte Kanten(TC_020513_DIN)
 48
14.5137882232666
100
AcDbLine
 10
112.9449922663505
 20
82.99130723819448
 30
0.0
 11
112.9449922663505
 21
88.99130723819451
 31
0.0
  0
LINE
  5
2C0
330
37
100
AcDbEntity
  8
Verdeckte Kanten(TC_020513_DIN)
 48
3.809293270111083
100
AcDbLine
 10
110.1649922663505
 20
88.99130723819451
 30
0.0
 11
110.1649922663505
 21
90.99130723819449
 31
0.0
  0
LINE
  5
2C1
330
37
100
AcDbEntity
  8
Verdeckte Kanten(TC_020513_DIN)
 48
3.809293270111083
100
AcDbLine
 10
113.2649922663505
 20
88.99130723819451
 30
0.0
 11
113.2649922663505
 21
90.99130723819449
 31
0.0
  0
LINE
  5
2C2
330
37
100
AcDbEntity
  8
Verdeckte Kanten(TC_020513_DIN)
 48
14.5137882232666
100
AcDbLine
 10
154.4849922663505
 20
82.99130723819448
 30
0.0
 11
154.4849922663505
 21
88.99130723819451
 31
0.0
  0
LINE
  5
2C3
330
37
100
AcDbEntity
  8
Verdeckte Kanten(TC_020513_DIN)
 48
14.5137882232666
100
AcDbLine
 10
156.9449922663505
 20
82.99130723819448
 30
0.0
 11
156.9449922663505
 21
88.99130723819451
 31
0.0
  0
LINE
  5
2C4
330
37
100
AcDbEntity
  8
Verdeckte Kanten(TC_020513_DIN)
 48
3.809293270111083
100
AcDbLine
 10
154.1649922663505
 20
88.99130723819451
 30
0.0
 11
154.1649922663505
 21
90.99130723819449
 31
0.0
  0
LINE
  5
2C5
330
37
100
AcDbEntity
  8
Verdeckte Kanten(TC_020513_DIN)
 48
3.809293270111083
100
AcDbLine
 10
157.2649922663505
 20
88.99130723819451
 30
0.0
 11
157.2649922663505
 21
90.99130723819449
 31
0.0
  0
LINE
  5
2C6
330
37
100
AcDbEntity
  8
Verdeckte Kanten(TC_020513_DIN)
 48
14.5137882232666
100
AcDbLine
 10
110.2149922663505
 20
88.99130723819451
 30
0.0
 11
110.2149922663505
 21
82.99130723819448
 31
0.0
  0
LINE
  5
2C7
330
37
100
AcDbEntity
  8
Verdeckte Kanten(TC_020513_DIN)
 48
14.5137882232666
100
AcDbLine
 10
113.2149922663505
 20
82.99130723819448
 30
0.0
 11
113.2149922663505
 21
88.99130723819451
 31
0.0
  0
LINE
  5
2C8
330
37
100
AcDbEntity
  8
Verdeckte Kanten(TC_020513_DIN)
 48
14.5137882232666
100
AcDbLine
 10
154.2149922663505
 20
88.99130723819451
 30
0.0
 11
154.2149922663505
 21
82.99130723819448
 31
0.0
  0
LINE
  5
2C9
330
37
100
AcDbEntity
  8
Verdeckte Kanten(TC_020513_DIN)
 48
14.5137882232666
100
AcDbLine
 10
157.2149922663505
 20
82.99130723819448
 30
0.0
 11
157.2149922663505
 21
88.99130723819451
 31
0.0
  0
LINE
  5
2CA
330
37
100
AcDbEntity
  8
Sichtbare Kanten(TC_020513_DIN)
100
AcDbLine
 10
170.2149922663504
 20
90.49130723819448
 30
0.0
 11
170.2149922663504
 21
95.49130723819448
 31
0.0
  0
LINE
  5
2CB
330
37
100
AcDbEntity
  8
Sichtbare Kanten(TC_020513_DIN)
100
AcDbLine
 10
165.2149922663504
 20
90.49130723819448
 30
0.0
 11
165.2149922663504
 21
95.49130723819448
 31
0.0
  0
LINE
  5
2CC
330
37
100
AcDbEntity
  8
Sichtbare Kanten(TC_020513_DIN)
100
AcDbLine
 10
165.2149922663504
 20
95.49130723819448
 30
0.0
 11
170.2149922663504
 21
95.49130723819448
 31
0.0
  0
LINE
  5
2CD
330
37
100
AcDbEntity
  8
Sichtbare Kanten(TC_020513_DIN)
100
AcDbLine
 10
165.2149922663504
 20
90.49130723819448
 30
0.0
 11
170.2149922663504
 21
90.49130723819448
 31
0.0
  0
LINE
  5
2CE
330
37
100
AcDbEntity
  8
Sichtbare Kanten(TC_020513_DIN)
100
AcDbLine
 10
165.2149922663504
 20
90.49130723819448
 30
0.0
 11
163.7149922663505
 21
88.99130723819451
 31
0.0
  0
LINE
  5
2CF
330
37
100
AcDbEntity
  8
Sichtbare Kanten(TC_020513_DIN)
100
AcDbLine
 10
165.2149922663504
 20
95.49130723819448
 30
0.0
 11
163.7149922663505
 21
96.99130723819449
 31
0.0
  0
LINE
  5
2D0
330
37
100
AcDbEntity
  8
Verdeckte Kanten(TC_020513_DIN)
 48
8.975571632385253
100
AcDbLine
 10
160.6149922663505
 20
91.49130723819448
 30
0.0
 11
160.6149922663505
 21
94.49130723819449
 31
0.0
  0
LINE
  5
2D1
330
37
100
AcDbEntity
  8
Verdeckte Kanten(TC_020513_DIN)
 48
0.1903696656227112
100
AcDbLine
 10
160.6149922663505
 20
94.49130723819449
 30
0.0
 11
160.7149922663504
 21
94.49130723819449
 31
0.0
  0
LINE
  5
2D2
330
37
100
AcDbEntity
  8
Verdeckte Kanten(TC_020513_DIN)
 48
0.1903696656227112
100
AcDbLine
 10
160.6149922663505
 20
91.49130723819451
 30
0.0
 11
160.7149922663504
 21
91.49130723819451
 31
0.0
  0
LINE
  5
2D3
330
37
100
AcDbEntity
  8
Sichtbare Kanten(TC_020513_DIN)
100
AcDbLine
 10
97.21499226635048
 20
90.49130723819448
 30
0.0
 11
97.21499226635048
 21
95.49130723819448
 31
0.0
  0
LINE
  5
2D4
330
37
100
AcDbEntity
  8
Sichtbare Kanten(TC_020513_DIN)
100
AcDbLine
 10
102.2149922663505
 20
90.49130723819448
 30
0.0
 11
102.2149922663505
 21
95.49130723819448
 31
0.0
  0
LINE
  5
2D5
330
37
100
AcDbEntity
  8
Sichtbare Kanten(TC_020513_DIN)
100
AcDbLine
 10
97.21499226635049
 20
95.49130723819448
 30
0.0
 11
102.2149922663505
 21
95.49130723819448
 31
0.0
  0
LINE
  5
2D6
330
37
100
AcDbEntity
  8
Sichtbare Kanten(TC_020513_DIN)
100
AcDbLine
 10
97.21499226635049
 20
90.49130723819448
 30
0.0
 11
102.2149922663505
 21
90.49130723819448
 31
0.0
  0
LINE
  5
2D7
330
37
100
AcDbEntity
  8
Sichtbare Kanten(TC_020513_DIN)
100
AcDbLine
 10
102.2149922663505
 20
95.49130723819448
 30
0.0
 11
103.7149922663505
 21
96.99130723819449
 31
0.0
  0
LINE
  5
2D8
330
37
100
AcDbEntity
  8
Sichtbare Kanten(TC_020513_DIN)
100
AcDbLine
 10
102.2149922663505
 20
90.49130723819448
 30
0.0
 11
103.7149922663505
 21
88.99130723819451
 31
0.0
  0
LINE
  5
2D9
330
37
100
AcDbEntity
  8
Verdeckte Kanten(TC_020513_DIN)
 48
8.975571632385253
100
AcDbLine
 10
106.8149922663505
 20
91.49130723819448
 30
0.0
 11
106.8149922663505
 21
94.49130723819449
 31
0.0
  0
LINE
  5
2DA
330
37
100
AcDbEntity
  8
Verdeckte Kanten(TC_020513_DIN)
 48
0.1903696656227112
100
AcDbLine
 10
106.7149922663505
 20
94.49130723819449
 30
0.0
 11
106.8149922663505
 21
94.49130723819449
 31
0.0
  0
LINE
  5
2DB
330
37
100
AcDbEntity
  8
Verdeckte Kanten(TC_020513_DIN)
 48
0.1903696656227112
100
AcDbLine
 10
106.7149922663505
 20
91.49130723819451
 30
0.0
 11
106.8149922663505
 21
91.49130723819451
 31
0.0
  0
LINE
  5
2DC
330
37
100
AcDbEntity
  8
Verdeckte Kanten(TC_020513_DIN)
 48
18.14223480224609
100
AcDbLine
 10
118.7149922663505
 20
78.24130723819449
 30
0.0
 11
148.7149922663505
 21
78.24130723819449
 31
0.0
  0
LINE
  5
2DD
330
37
100
AcDbEntity
  8
Verdeckte Kanten(TC_020513_DIN)
 48
3.809293270111083
100
AcDbLine
 10
148.7149922663505
 20
76.24130723819449
 30
0.0
 11
148.7149922663505
 21
78.24130723819449
 31
0.0
  0
LINE
  5
2DE
330
37
100
AcDbEntity
  8
Verdeckte Kanten(TC_020513_DIN)
 48
3.809293270111083
100
AcDbLine
 10
118.7149922663505
 20
78.24130723819449
 30
0.0
 11
118.7149922663505
 21
76.24130723819449
 31
0.0
  0
LINE
  5
2DF
330
37
100
AcDbEntity
  8
Verdeckte Kanten(TC_020513_DIN)
 48
18.14223480224609
100
AcDbLine
 10
118.7149922663505
 20
76.24130723819449
 30
0.0
 11
148.7149922663505
 21
76.24130723819449
 31
0.0
  0
LINE
  5
2E0
330
37
100
AcDbEntity
  8
Verdeckte Kanten(TC_020513_DIN)
 48
2.380770683288574
100
AcDbLine
 10
148.7149922663505
 20
78.24130723819449
 30
0.0
 11
148.7149922663505
 21
79.49130723819449
 31
0.0
  0
LINE
  5
2E1
330
37
100
AcDbEntity
  8
Verdeckte Kanten(TC_020513_DIN)
 48
14.15911769866943
100
AcDbLine
 10
148.7149922663505
 20
97.24130723819451
 30
0.0
 11
148.7149922663505
 21
102.9913072381944
 31
0.0
  0
LINE
  5
2E2
330
37
100
AcDbEntity
  8
Verdeckte Kanten(TC_020513_DIN)
 48
2.380770683288574
100
AcDbLine
 10
118.7149922663505
 20
79.49130723819449
 30
0.0
 11
118.7149922663505
 21
78.24130723819449
 31
0.0
  0
LINE
  5
2E3
330
37
100
AcDbEntity
  8
Verdeckte Kanten(TC_020513_DIN)
 48
14.02999496459961
100
AcDbLine
 10
136.6149922663505
 20
97.24130723819449
 30
0.0
 11
130.8149922663504
 21
97.24130723819449
 31
0.0
  0
LINE
  5
2E4
330
37
100
AcDbEntity
  8
Verdeckte Kanten(TC_020513_DIN)
 48
14.15911769866943
100
AcDbLine
 10
118.7149922663505
 20
102.9913072381944
 30
0.0
 11
118.7149922663505
 21
97.24130723819451
 31
0.0
  0
LINE
  5
2E5
330
37
100
AcDbEntity
  8
Sichtbare Kanten(TC_020513_DIN)
100
AcDbLine
 10
148.7149922663505
 20
102.9913072381944
 30
0.0
 11
148.7149922663505
 21
107.7413072381945
 31
0.0
  0
LINE
  5
2E6
330
37
100
AcDbEntity
  8
Sichtbare Kanten(TC_020513_DIN)
100
AcDbLine
 10
118.7149922663505
 20
107.7413072381945
 30
0.0
 11
118.7149922663505
 21
102.9913072381944
 31
0.0
  0
LINE
  5
2E7
330
37
100
AcDbEntity
  8
Sichtbare Kanten(TC_020513_DIN)
100
AcDbLine
 10
118.7149922663505
 20
107.7413072381945
 30
0.0
 11
124.5649922663505
 21
107.7413072381945
 31
0.0
  0
LINE
  5
2E8
330
37
100
AcDbEntity
  8
Sichtbare Kanten(TC_020513_DIN)
100
AcDbLine
 10
142.8649922663504
 20
107.7413072381945
 30
0.0
 11
148.7149922663505
 21
107.7413072381945
 31
0.0
  0
LINE
  5
2E9
330
37
100
AcDbEntity
  8
Verdeckte Kanten(TC_020513_DIN)
 48
17.17465019226074
100
AcDbLine
 10
148.7149922663505
 20
97.24130723819451
 30
0.0
 11
148.7149922663505
 21
79.49130723819449
 31
0.0
  0
LINE
  5
2EA
330
37
100
AcDbEntity
  8
Verdeckte Kanten(TC_020513_DIN)
 48
0.1903696656227112
100
AcDbLine
 10
122.7149922663505
 20
82.49130723819449
 30
0.0
 11
122.8149922663504
 21
82.49130723819449
 31
0.0
  0
LINE
  5
2EB
330
37
100
AcDbEntity
  8
Verdeckte Kanten(TC_020513_DIN)
 48
14.15094375610351
100
AcDbLine
 10
142.8649922663504
 20
97.24130723819449
 30
0.0
 11
148.7149922663505
 21
97.24130723819451
 31
0.0
  0
LINE
  5
2EC
330
37
100
AcDbEntity
  8
Verdeckte Kanten(TC_020513_DIN)
 48
15.11852931976318
100
AcDbLine
 10
136.6149922663505
 20
97.24130723819449
 30
0.0
 11
142.8649922663504
 21
97.24130723819449
 31
0.0
  0
LINE
  5
2ED
330
37
100
AcDbEntity
  8
Verdeckte Kanten(TC_020513_DIN)
 48
16.32801246643066
100
AcDbLine
 10
136.6149922663505
 20
97.24130723819449
 30
0.0
 11
136.6149922663505
 21
90.4913072381945
 31
0.0
  0
LINE
  5
2EE
330
37
100
AcDbEntity
  8
Verdeckte Kanten(TC_020513_DIN)
 48
0.1903696656227112
100
AcDbLine
 10
144.6149922663505
 20
82.49130723819449
 30
0.0
 11
144.7149922663505
 21
82.49130723819449
 31
0.0
  0
LINE
  5
2EF
330
37
100
AcDbEntity
  8
Verdeckte Kanten(TC_020513_DIN)
 48
16.32801246643066
100
AcDbLine
 10
130.8149922663504
 20
97.24130723819449
 30
0.0
 11
130.8149922663504
 21
90.4913072381945
 31
0.0
  0
LINE
  5
2F0
330
37
100
AcDbEntity
  8
Verdeckte Kanten(TC_020513_DIN)
 48
15.11852931976318
100
AcDbLine
 10
124.5649922663505
 20
97.24130723819449
 30
0.0
 11
130.8149922663504
 21
97.24130723819449
 31
0.0
  0
LINE
  5
2F1
330
37
100
AcDbEntity
  8
Verdeckte Kanten(TC_020513_DIN)
 48
14.15094375610351
100
AcDbLine
 10
118.7149922663505
 20
97.24130723819451
 30
0.0
 11
124.5649922663505
 21
97.24130723819449
 31
0.0
  0
LINE
  5
2F2
330
37
100
AcDbEntity
  8
Verdeckte Kanten(TC_020513_DIN)
 48
17.17465019226074
100
AcDbLine
 10
118.7149922663505
 20
79.49130723819449
 30
0.0
 11
118.7149922663505
 21
97.24130723819451
 31
0.0
  0
ARC
  5
2F3
330
37
100
AcDbEntity
  8
Verdeckte Kanten(TC_020513_DIN)
 48
20.26507186889649
100
AcDbCircle
 10
122.8149922663504
 20
90.49130723819448
 30
0.0
 40
7.999999999999992
100
AcDbArc
 50
269.9999999999999
 51
0.0
  0
ARC
  5
2F4
330
37
100
AcDbEntity
  8
Verdeckte Kanten(TC_020513_DIN)
 48
20.26507186889649
100
AcDbCircle
 10
144.6149922663505
 20
90.49130723819448
 30
0.0
 40
7.999999999999996
100
AcDbArc
 50
180.0
 51
270.0
  0
LINE
  5
2F5
330
37
100
AcDbEntity
  8
Verdeckte Kanten(TC_020513_DIN)
 48
9.523383140563964
100
AcDbLine
 10
118.7149922663505
 20
79.49130723819449
 30
0.0
 11
122.7149922663505
 21
82.49130723819449
 31
0.0
  0
LINE
  5
2F6
330
37
100
AcDbEntity
  8
Verdeckte Kanten(TC_020513_DIN)
 48
9.523383140563964
100
AcDbLine
 10
144.7149922663505
 20
82.49130723819449
 30
0.0
 11
148.7149922663505
 21
79.49130723819449
 31
0.0
  0
LINE
  5
2F7
330
37
100
AcDbEntity
  8
Sichtbare Kanten(TC_020513_DIN)
100
AcDbLine
 10
120.4649922663505
 20
105.5384975656814
 30
0.0
 11
124.5649922663505
 21
105.5384975656814
 31
0.0
  0
LINE
  5
2F8
330
37
100
AcDbEntity
  8
Sichtbare Kanten(TC_020513_DIN)
100
AcDbLine
 10
120.4649922663505
 20
102.9913072381944
 30
0.0
 11
120.4649922663505
 21
105.5384975656814
 31
0.0
  0
LINE
  5
2F9
330
37
100
AcDbEntity
  8
Sichtbare Kanten(TC_020513_DIN)
100
AcDbLine
 10
142.8649922663504
 20
105.5384975656814
 30
0.0
 11
142.8649922663504
 21
104.9913072381945
 31
0.0
  0
LINE
  5
2FA
330
37
100
AcDbEntity
  8
Sichtbare Kanten(TC_020513_DIN)
100
AcDbLine
 10
124.5649922663505
 20
104.9913072381945
 30
0.0
 11
124.5649922663505
 21
105.5384975656814
 31
0.0
  0
LINE
  5
2FB
330
37
100
AcDbEntity
  8
Sichtbare Kanten(TC_020513_DIN)
100
AcDbLine
 10
142.8649922663504
 20
105.5384975656814
 30
0.0
 11
146.9649922663504
 21
105.5384975656814
 31
0.0
  0
LINE
  5
2FC
330
37
100
AcDbEntity
  8
Sichtbare Kanten(TC_020513_DIN)
100
AcDbLine
 10
146.9649922663504
 20
105.5384975656814
 30
0.0
 11
146.9649922663504
 21
102.9913072381944
 31
0.0
  0
LINE
  5
2FD
330
37
100
AcDbEntity
  8
Sichtbare Kanten(TC_020513_DIN)
100
AcDbLine
 10
142.8649922663504
 20
104.9913072381945
 30
0.0
 11
146.9649922663504
 21
104.9913072381945
 31
0.0
  0
LINE
  5
2FE
330
37
100
AcDbEntity
  8
Sichtbare Kanten(TC_020513_DIN)
100
AcDbLine
 10
120.4649922663505
 20
104.9913072381945
 30
0.0
 11
124.5649922663505
 21
104.9913072381945
 31
0.0
  0
LINE
  5
2FF
330
37
100
AcDbEntity
  8
Verdeckte Kanten(TC_020513_DIN)
 48
7.809155941009521
100
AcDbLine
 10
124.5649922663505
 20
99.92765677302088
 30
0.0
 11
120.4649922663505
 21
99.92765677302088
 31
0.0
  0
LINE
  5
300
330
37
100
AcDbEntity
  8
Verdeckte Kanten(TC_020513_DIN)
 48
5.940137863159179
100
AcDbLine
 10
120.4649922663505
 20
99.92765677302088
 30
0.0
 11
120.4649922663505
 21
102.9913072381944
 31
0.0
  0
LINE
  5
301
330
37
100
AcDbEntity
  8
Verdeckte Kanten(TC_020513_DIN)
 48
1.153595089912414
100
AcDbLine
 10
142.8649922663504
 20
100.2913726394849
 30
0.0
 11
142.8649922663504
 21
99.92765677302092
 31
0.0
  0
LINE
  5
302
330
37
100
AcDbEntity
  8
Verdeckte Kanten(TC_020513_DIN)
 48
19.42634010314941
100
AcDbLine
 10
142.8649922663504
 20
100.2913726394849
 30
0.0
 11
142.8649922663504
 21
100.9913072381945
 31
0.0
  0
LINE
  5
303
330
37
100
AcDbEntity
  8
Verdeckte Kanten(TC_020513_DIN)
 48
3.809293270111083
100
AcDbLine
 10
142.8649922663504
 20
100.9913072381945
 30
0.0
 11
142.8649922663504
 21
102.9913072381945
 31
0.0
  0
LINE
  5
304
330
37
100
AcDbEntity
  8
Verdeckte Kanten(TC_020513_DIN)
 48
3.809293270111083
100
AcDbLine
 10
142.8649922663504
 20
102.9913072381945
 30
0.0
 11
142.8649922663504
 21
104.9913072381945
 31
0.0
  0
LINE
  5
305
330
37
100
AcDbEntity
  8
Verdeckte Kanten(TC_020513_DIN)
 48
3.809293270111083
100
AcDbLine
 10
124.5649922663505
 20
104.9913072381945
 30
0.0
 11
124.5649922663505
 21
102.9913072381945
 31
0.0
  0
LINE
  5
306
330
37
100
AcDbEntity
  8
Verdeckte Kanten(TC_020513_DIN)
 48
3.809293270111083
100
AcDbLine
 10
124.5649922663505
 20
102.9913072381945
 30
0.0
 11
124.5649922663505
 21
100.9913072381945
 31
0.0
  0
LINE
  5
307
330
37
100
AcDbEntity
  8
Verdeckte Kanten(TC_020513_DIN)
 48
19.42634010314941
100
AcDbLine
 10
124.5649922663505
 20
100.9913072381945
 30
0.0
 11
124.5649922663505
 21
100.2913726394849
 31
0.0
  0
LINE
  5
308
330
37
100
AcDbEntity
  8
Verdeckte Kanten(TC_020513_DIN)
 48
1.153595089912414
100
AcDbLine
 10
124.5649922663505
 20
99.92765677302088
 30
0.0
 11
124.5649922663505
 21
100.2913726394849
 31
0.0
  0
LINE
  5
309
330
37
100
AcDbEntity
  8
Verdeckte Kanten(TC_020513_DIN)
 48
5.940137863159179
100
AcDbLine
 10
146.9649922663504
 20
102.9913072381944
 30
0.0
 11
146.9649922663504
 21
99.92765677302088
 31
0.0
  0
LINE
  5
30A
330
37
100
AcDbEntity
  8
Verdeckte Kanten(TC_020513_DIN)
 48
7.809155941009521
100
AcDbLine
 10
146.9649922663504
 20
99.92765677302088
 30
0.0
 11
142.8649922663504
 21
99.92765677302092
 31
0.0
  0
LINE
  5
30B
330
37
100
AcDbEntity
  8
Verdeckte Kanten(TC_020513_DIN)
 48
7.809155941009521
100
AcDbLine
 10
142.8649922663504
 20
100.9913072381945
 30
0.0
 11
146.9649922663504
 21
100.9913072381945
 31
0.0
  0
LINE
  5
30C
330
37
100
AcDbEntity
  8
Verdeckte Kanten(TC_020513_DIN)
 48
7.809155941009521
100
AcDbLine
 10
120.4649922663505
 20
100.9913072381945
 30
0.0
 11
124.5649922663505
 21
100.9913072381945
 31
0.0
  0
LINE
  5
30D
330
37
100
AcDbEntity
  8
Sichtbare Kanten(TC_020513_DIN)
100
AcDbLine
 10
124.5649922663505
 20
105.5384975656814
 30
0.0
 11
124.5649922663505
 21
107.7413072381945
 31
0.0
  0
LINE
  5
30E
330
37
100
AcDbEntity
  8
Sichtbare Kanten(TC_020513_DIN)
100
AcDbLine
 10
142.8649922663504
 20
107.7413072381945
 30
0.0
 11
142.8649922663504
 21
105.5384975656814
 31
0.0
  0
LINE
  5
30F
330
37
100
AcDbEntity
  8
Verdeckte Kanten(TC_020513_DIN)
 48
5.208573341369628
100
AcDbLine
 10
124.5649922663505
 20
97.24130723819449
 30
0.0
 11
124.5649922663505
 21
99.92765677302088
 31
0.0
  0
LINE
  5
310
330
37
100
AcDbEntity
  8
Verdeckte Kanten(TC_020513_DIN)
 48
1.237952828407287
100
AcDbLine
 10
142.8649922663504
 20
85.4913072381945
 30
0.0
 11
142.2149922663505
 21
85.49130723819443
 31
0.0
  0
LINE
  5
311
330
37
100
AcDbEntity
  8
Verdeckte Kanten(TC_020513_DIN)
 48
22.37542343139649
100
AcDbLine
 10
142.8649922663504
 20
76.24130723819449
 30
0.0
 11
142.8649922663504
 21
85.4913072381945
 31
0.0
  0
LINE
  5
312
330
37
100
AcDbEntity
  8
Verdeckte Kanten(TC_020513_DIN)
 48
22.37542343139649
100
AcDbLine
 10
124.5649922663505
 20
85.4913072381945
 30
0.0
 11
124.5649922663505
 21
76.24130723819449
 31
0.0
  0
LINE
  5
313
330
37
100
AcDbEntity
  8
Verdeckte Kanten(TC_020513_DIN)
 48
1.237952828407287
100
AcDbLine
 10
125.2149922663505
 20
85.49130723819443
 30
0.0
 11
124.5649922663505
 21
85.4913072381945
 31
0.0
  0
LINE
  5
314
330
37
100
AcDbEntity
  8
Verdeckte Kanten(TC_020513_DIN)
 48
19.22108840942383
100
AcDbLine
 10
124.5649922663505
 20
97.24130723819449
 30
0.0
 11
124.5649922663505
 21
85.4913072381945
 31
0.0
  0
LINE
  5
315
330
37
100
AcDbEntity
  8
Verdeckte Kanten(TC_020513_DIN)
 48
19.22108840942383
100
AcDbLine
 10
142.8649922663504
 20
85.4913072381945
 30
0.0
 11
142.8649922663504
 21
97.24130723819449
 31
0.0
  0
LINE
  5
316
330
37
100
AcDbEntity
  8
Verdeckte Kanten(TC_020513_DIN)
 48
5.208573341369628
100
AcDbLine
 10
142.8649922663504
 20
99.92765677302092
 30
0.0
 11
142.8649922663504
 21
97.24130723819449
 31
0.0
  0
LINE
  5
317
330
37
100
AcDbEntity
  8
Verdeckte Kanten(TC_020513_DIN)
 48
18.14223480224609
100
AcDbLine
 10
142.2149922663505
 20
77.99130723819451
 30
0.0
 11
142.2149922663505
 21
85.49130723819443
 31
0.0
  0
LINE
  5
318
330
37
100
AcDbEntity
  8
Verdeckte Kanten(TC_020513_DIN)
 48
18.14223480224609
100
AcDbLine
 10
125.2149922663505
 20
85.49130723819443
 30
0.0
 11
125.2149922663505
 21
77.99130723819451
 31
0.0
  0
LINE
  5
319
330
37
100
AcDbEntity
  8
Verdeckte Kanten(TC_020513_DIN)
 48
0.9868083000183105
100
AcDbLine
 10
125.2149922663505
 20
86.30842489374133
 30
0.0
 11
125.2149922663505
 21
85.79130723819449
 31
0.0
  0
LINE
  5
31A
330
37
100
AcDbEntity
  8
Verdeckte Kanten(TC_020513_DIN)
 48
0.9868083000183105
100
AcDbLine
 10
142.2149922663505
 20
85.79130723819449
 30
0.0
 11
142.2149922663505
 21
86.30842489374133
 31
0.0
  0
LINE
  5
31B
330
37
100
AcDbEntity
  8
Verdeckte Kanten(TC_020513_DIN)
 48
0.571308970451355
100
AcDbLine
 10
142.2149922663505
 20
85.49130723819443
 30
0.0
 11
142.2149922663505
 21
85.79130723819449
 31
0.0
  0
LINE
  5
31C
330
37
100
AcDbEntity
  8
Verdeckte Kanten(TC_020513_DIN)
 48
0.571308970451355
100
AcDbLine
 10
125.2149922663505
 20
85.79130723819449
 30
0.0
 11
125.2149922663505
 21
85.49130723819443
 31
0.0
  0
LINE
  5
31D
330
37
100
AcDbEntity
  8
Verdeckte Kanten(TC_020513_DIN)
 48
18.16990852355957
100
AcDbLine
 10
125.2149922663505
 20
101.2420145228091
 30
0.0
 11
125.2149922663505
 21
86.30842489374131
 31
0.0
  0
LINE
  5
31E
330
37
100
AcDbEntity
  8
Verdeckte Kanten(TC_020513_DIN)
 48
18.16990852355957
100
AcDbLine
 10
142.2149922663505
 20
86.30842489374131
 30
0.0
 11
142.2149922663505
 21
101.2420145228091
 31
0.0
  0
ARC
  5
31F
330
37
100
AcDbEntity
  8
Verdeckte Kanten(TC_020513_DIN)
 48
2.094223260879516
100
AcDbCircle
 10
125.9149922663505
 20
77.99130723819451
 30
0.0
 40
0.7000000000000018
100
AcDbArc
 50
180.0
 51
270.0
  0
ARC
  5
320
330
37
100
AcDbEntity
  8
Verdeckte Kanten(TC_020513_DIN)
 48
2.094223260879516
100
AcDbCircle
 10
141.5149922663504
 20
77.99130723819451
 30
0.0
 40
0.7000000000000018
100
AcDbArc
 50
270.0
 51
0.0
  0
ELLIPSE
  5
321
330
37
100
AcDbEntity
  8
Verdeckte Kanten(TC_020513_DIN)
 48
1.861520767211914
100
AcDbEllipse
 10
141.5149922663505
 20
101.2964479602351
 30
0.0
 11
0.6999999999999929
 21
-0.0000000000000133
 31
0.0
210
0.0
220
0.0
230
1.0
 40
0.9940563382223203
 41
0.0
 42
1.396263401595472
  0
ELLIPSE
  5
322
330
37
100
AcDbEntity
  8
Verdeckte Kanten(TC_020513_DIN)
 48
1.861520767211914
100
AcDbEllipse
 10
141.5149922663505
 20
101.2420145228091
 30
0.0
 11
0.6999999999999972
 21
0.0000000000000269
 31
0.0
210
0.0
220
0.0
230
1.0
 40
0.994056338222321
 41
0.0
 42
1.39626340159544
  0
LINE
  5
323
330
37
100
AcDbEntity
  8
Verdeckte Kanten(TC_020513_DIN)
 48
0.9522482752799987
100
AcDbLine
 10
142.2149922663505
 20
101.2420145228091
 30
0.0
 11
142.2149922663505
 21
101.2964479602351
 31
0.0
  0
ELLIPSE
  5
324
330
37
100
AcDbEntity
  8
Verdeckte Kanten(TC_020513_DIN)
 48
1.861520767211914
100
AcDbEllipse
 10
127.0149922663504
 20
102.8479691342217
 30
0.0
 11
0.7000000000000104
 21
0.0000000000001239
 31
0.0
210
0.0
220
0.0
230
1.0
 40
0.9940563382223183
 41
4.886921905583955
 42
6.283185307179407
  0
ELLIPSE
  5
325
330
37
100
AcDbEntity
  8
Verdeckte Kanten(TC_020513_DIN)
 48
1.861520767211914
100
AcDbEllipse
 10
125.9149922663505
 20
101.2420145228091
 30
0.0
 11
-0.6999999999999951
 21
0.0
 31
0.0
210
0.0
220
0.0
230
1.0
 40
0.9940563382223203
 41
4.886921905584106
 42
6.283185307179586
  0
ELLIPSE
  5
326
330
37
100
AcDbEntity
  8
Verdeckte Kanten(TC_020513_DIN)
 48
1.861520767211914
100
AcDbEllipse
 10
140.4149922663505
 20
102.8479691342217
 30
0.0
 11
-0.7000000000000084
 21
-0.0000000000000089
 31
0.0
210
0.0
220
0.0
230
1.0
 40
0.9940563382223182
 41
0.0
 42
1.396263401595441
  0
ELLIPSE
  5
327
330
37
100
AcDbEntity
  8
Verdeckte Kanten(TC_020513_DIN)
 48
1.861520767211914
100
AcDbEllipse
 10
125.9149922663505
 20
101.2964479602351
 30
0.0
 11
-0.6999999999999885
 21
0.0000000000000272
 31
0.0
210
0.0
220
0.0
230
1.0
 40
0.9940563382223205
 41
4.886921905584149
 42
6.283185307179625
  0
LINE
  5
328
330
37
100
AcDbEntity
  8
Verdeckte Kanten(TC_020513_DIN)
 48
0.9522482752799987
100
AcDbLine
 10
125.2149922663505
 20
101.2964479602351
 30
0.0
 11
125.2149922663505
 21
101.2420145228091
 31
0.0
  0
ELLIPSE
  5
329
330
37
100
AcDbEntity
  8
Verdeckte Kanten(TC_020513_DIN)
 48
1.861520767211914
100
AcDbEllipse
 10
127.0149922663505
 20
102.9024025716477
 30
0.0
 11
0.7000000000000039
 21
0.0
 31
0.0
210
0.0
220
0.0
230
1.0
 40
0.9940563382223185
 41
4.886921905584131
 42
6.283185307179588
  0
ELLIPSE
  5
32A
330
37
100
AcDbEntity
  8
Verdeckte Kanten(TC_020513_DIN)
 48
1.861520767211914
100
AcDbEllipse
 10
140.4149922663505
 20
102.9024025716477
 30
0.0
 11
-0.7000000000000056
 21
0.0000000000001254
 31
0.0
210
0.0
220
0.0
230
1.0
 40
0.9940563382223183
 41
0.0
 42
1.396263401595632
  0
LINE
  5
32B
330
37
100
AcDbEntity
  8
Sichtbare Kanten(TC_020513_DIN)
100
AcDbLine
 10
139.7149922663505
 20
106.5682510827258
 30
0.0
 11
139.7149922663505
 21
106.6226845201518
 31
0.0
  0
LINE
  5
32C
330
37
100
AcDbEntity
  8
Sichtbare Kanten(TC_020513_DIN)
100
AcDbLine
 10
127.7149922663505
 20
106.6226845201518
 30
0.0
 11
127.7149922663505
 21
106.5682510827258
 31
0.0
  0
ELLIPSE
  5
32D
330
37
100
AcDbEntity
  8
Sichtbare Kanten(TC_020513_DIN)
100
AcDbEllipse
 10
128.4149922663505
 20
106.5682510827258
 30
0.0
 11
-0.6999999999999974
 21
-0.0000000000000044
 31
0.0
210
0.0
220
0.0
230
1.0
 40
0.9940563382223192
 41
4.712388980384657
 42
6.28318530717958
  0
ELLIPSE
  5
32E
330
37
100
AcDbEntity
  8
Sichtbare Kanten(TC_020513_DIN)
100
AcDbEllipse
 10
139.0149922663505
 20
106.5682510827258
 30
0.0
 11
0.6999999999999952
 21
0.0000000000000016
 31
0.0
210
0.0
220
0.0
230
1.0
 40
0.9940563382223192
 41
0.0
 42
1.570796326794894
  0
ELLIPSE
  5
32F
330
37
100
AcDbEntity
  8
Sichtbare Kanten(TC_020513_DIN)
100
AcDbEllipse
 10
139.0149922663505
 20
106.6226845201518
 30
0.0
 11
0.6999999999999995
 21
0.0
 31
0.0
210
0.0
220
0.0
230
1.0
 40
0.994056338222319
 41
0.0
 42
1.570796326794896
  0
ELLIPSE
  5
330
330
37
100
AcDbEntity
  8
Sichtbare Kanten(TC_020513_DIN)
100
AcDbEllipse
 10
128.4149922663505
 20
106.6226845201518
 30
0.0
 11
-0.7000000000000001
 21
0.0000000000000016
 31
0.0
210
0.0
220
0.0
230
1.0
 40
0.9940563382223185
 41
4.712388980384691
 42
6.283185307179589
  0
LINE
  5
331
330
37
100
AcDbEntity
  8
Verdeckte Kanten(TC_020513_DIN)
 48
18.86792373657226
100
AcDbLine
 10
125.9149922663505
 20
77.29130723819449
 30
0.0
 11
141.5149922663504
 21
77.29130723819449
 31
0.0
  0
LINE
  5
332
330
37
100
AcDbEntity
  8
Verdeckte Kanten(TC_020513_DIN)
 48
16.44895935058594
100
AcDbLine
 10
142.2149922663505
 20
85.49130723819443
 30
0.0
 11
125.2149922663505
 21
85.49130723819443
 31
0.0
  0
LINE
  5
333
330
37
100
AcDbEntity
  8
Verdeckte Kanten(TC_020513_DIN)
 48
0.2745480239391327
100
AcDbLine
 10
139.7149922663505
 20
102.8479691342217
 30
0.0
 11
139.7149922663505
 21
102.9913072381944
 31
0.0
  0
LINE
  5
334
330
37
100
AcDbEntity
  8
Verdeckte Kanten(TC_020513_DIN)
 48
0.2745480239391327
100
AcDbLine
 10
127.7149922663505
 20
102.9913072381944
 30
0.0
 11
127.7149922663505
 21
102.8479691342217
 31
0.0
  0
LINE
  5
335
330
37
100
AcDbEntity
  8
Sichtbare Kanten(TC_020513_DIN)
100
AcDbLine
 10
139.7149922663505
 20
102.9913072381944
 30
0.0
 11
139.7149922663505
 21
106.5682510827258
 31
0.0
  0
LINE
  5
336
330
37
100
AcDbEntity
  8
Sichtbare Kanten(TC_020513_DIN)
100
AcDbLine
 10
127.7149922663505
 20
106.5682510827258
 30
0.0
 11
127.7149922663505
 21
102.9913072381944
 31
0.0
  0
LINE
  5
337
330
37
100
AcDbEntity
  8
Sichtbare Kanten(TC_020513_DIN)
100
AcDbLine
 10
128.4149922663505
 20
107.2640905194815
 30
0.0
 11
139.0149922663505
 21
107.2640905194815
 31
0.0
  0
LINE
  5
338
330
37
100
AcDbEntity
  8
Sichtbare Kanten(TC_020513_DIN)
100
AcDbLine
 10
128.4149922663505
 20
107.3185239569075
 30
0.0
 11
139.0149922663505
 21
107.3185239569075
 31
0.0
  0
LINE
  5
339
330
37
100
AcDbEntity
  8
Verdeckte Kanten(TC_020513_DIN)
 48
2.597576856613159
100
AcDbLine
 10
125.7934385419836
 20
101.9272825949777
 30
0.0
 11
127.1365459907173
 21
102.1627010620532
 31
0.0
  0
LINE
  5
33A
330
37
100
AcDbEntity
  8
Verdeckte Kanten(TC_020513_DIN)
 48
2.597576856613159
100
AcDbLine
 10
127.1365459907173
 20
102.2171344994791
 30
0.0
 11
125.7934385419836
 21
101.9817160324037
 31
0.0
  0
LINE
  5
33B
330
37
100
AcDbEntity
  8
Verdeckte Kanten(TC_020513_DIN)
 48
2.597576856613159
100
AcDbLine
 10
140.2934385419836
 20
102.1627010620532
 30
0.0
 11
141.6365459907173
 21
101.9272825949777
 31
0.0
  0
LINE
  5
33C
330
37
100
AcDbEntity
  8
Verdeckte Kanten(TC_020513_DIN)
 48
2.597576856613159
100
AcDbLine
 10
141.6365459907173
 20
101.9817160324037
 30
0.0
 11
140.2934385419836
 21
102.2171344994791
 31
0.0
  0
CIRCLE
  5
33D
330
37
100
AcDbEntity
  8
Verdeckte Kanten(TC_020513_DIN)
 48
17.73193740844726
100
AcDbCircle
 10
133.7149922663505
 20
81.49130723819451
 30
0.0
 40
3.50000000000001
  0
CIRCLE
  5
33E
330
37
100
AcDbEntity
  8
Verdeckte Kanten(TC_020513_DIN)
 48
17.73193740844726
100
AcDbCircle
 10
133.7149922663505
 20
81.49130723819451
 30
0.0
 40
1.750000000000007
  0
LINE
  5
33F
330
37
100
AcDbEntity
  8
Sichtbare Kanten(TC_020513_DIN)
100
AcDbLine
 10
226.3730421388697
 20
97.49130723819449
 30
0.0
 11
220.3730421388715
 21
97.49130723819449
 31
0.0
  0
LINE
  5
340
330
37
100
AcDbEntity
  8
Sichtbare Kanten(TC_020513_DIN)
100
AcDbLine
 10
264.3730421388715
 20
97.49130723819449
 30
0.0
 11
258.3730421388697
 21
97.49130723819449
 31
0.0
  0
LINE
  5
341
330
37
100
AcDbEntity
  8
Sichtbare Kanten(TC_020513_DIN)
100
AcDbLine
 10
226.3730421388697
 20
97.49130723819449
 30
0.0
 11
258.3730421388697
 21
97.49130723819449
 31
0.0
  0
LINE
  5
342
330
37
100
AcDbEntity
  8
Sichtbare Kanten(TC_020513_DIN)
100
AcDbLine
 10
220.3730421388715
 20
102.9913072381944
 30
0.0
 11
226.3730421388697
 21
102.9913072381944
 31
0.0
  0
LINE
  5
343
330
37
100
AcDbEntity
  8
Sichtbare Kanten(TC_020513_DIN)
100
AcDbLine
 10
220.3730421388715
 20
102.9913072381944
 30
0.0
 11
220.3730421388715
 21
97.49130723819449
 31
0.0
  0
LINE
  5
344
330
37
100
AcDbEntity
  8
Sichtbare Kanten(TC_020513_DIN)
100
AcDbLine
 10
258.3730421388697
 20
102.9913072381944
 30
0.0
 11
226.3730421388697
 21
102.9913072381944
 31
0.0
  0
LINE
  5
345
330
37
100
AcDbEntity
  8
Sichtbare Kanten(TC_020513_DIN)
100
AcDbLine
 10
264.3730421388715
 20
102.9913072381944
 30
0.0
 11
264.3730421388715
 21
97.49130723819449
 31
0.0
  0
LINE
  5
346
330
37
100
AcDbEntity
  8
Sichtbare Kanten(TC_020513_DIN)
100
AcDbLine
 10
258.3730421388697
 20
102.9913072381944
 30
0.0
 11
264.3730421388715
 21
102.9913072381944
 31
0.0
  0
LINE
  5
347
330
37
100
AcDbEntity
  8
Verdeckte Kanten(TC_020513_DIN)
 48
10.47573089599609
100
AcDbLine
 10
224.3730421388715
 20
102.9913072381944
 30
0.0
 11
224.3730421388715
 21
97.49130723819448
 31
0.0
  0
LINE
  5
348
330
37
100
AcDbEntity
  8
Verdeckte Kanten(TC_020513_DIN)
 48
10.47573089599609
100
AcDbLine
 10
260.3730421388715
 20
102.9913072381944
 30
0.0
 11
260.3730421388715
 21
97.49130723819448
 31
0.0
  0
LINE
  5
349
330
37
100
AcDbEntity
  8
Sichtbare Kanten(TC_020513_DIN)
100
AcDbLine
 10
204.1230421388759
 20
162.6913072381944
 30
0.0
 11
204.1230421388759
 21
159.9913072381944
 31
0.0
  0
LINE
  5
34A
330
37
100
AcDbEntity
  8
Sichtbare Kanten(TC_020513_DIN)
100
AcDbLine
 10
207.1230421388759
 20
159.9913072381944
 30
0.0
 11
207.1230421388759
 21
162.6913072381944
 31
0.0
  0
LINE
  5
34B
330
37
100
AcDbEntity
  8
Sichtbare Kanten(TC_020513_DIN)
100
AcDbLine
 10
207.1230421388759
 20
162.6913072381944
 30
0.0
 11
204.1230421388759
 21
162.6913072381944
 31
0.0
  0
CIRCLE
  5
34C
330
37
100
AcDbEntity
  8
Sichtbare Kanten(TC_020513_DIN)
100
AcDbCircle
 10
201.6230421388687
 20
138.2413072381944
 30
0.0
 40
2.5
  0
LINE
  5
34D
330
37
100
AcDbEntity
  8
Verdeckte Kanten(TC_020513_DIN)
 48
4.487735748291015
100
AcDbLine
 10
198.1230421388718
 20
155.4913072381945
 30
0.0
 11
198.1230421388714
 21
153.9913072381944
 31
0.0
  0
ARC
  5
34E
330
37
100
AcDbEntity
  8
Verdeckte Kanten(TC_020513_DIN)
 48
5.983680725097656
100
AcDbCircle
 10
200.1230421388719
 20
155.4913072381945
 30
0.0
 40
2.000000000000028
100
AcDbArc
 50
90.0
 51
180.0
  0
LINE
  5
34F
330
37
100
AcDbEntity
  8
Verdeckte Kanten(TC_020513_DIN)
 48
19.04934692382812
100
AcDbLine
 10
198.1230421388714
 20
122.4913072381945
 30
0.0
 11
198.1230421388714
 21
153.9913072381945
 31
0.0
  0
ARC
  5
350
330
37
100
AcDbEntity
  8
Verdeckte Kanten(TC_020513_DIN)
 48
5.983680725097656
100
AcDbCircle
 10
200.1230421388718
 20
120.9913072381945
 30
0.0
 40
1.999999999999984
100
AcDbArc
 50
180.0
 51
270.0
  0
LINE
  5
351
330
37
100
AcDbEntity
  8
Verdeckte Kanten(TC_020513_DIN)
 48
4.487735748291015
100
AcDbLine
 10
198.1230421388714
 20
122.4913072381945
 30
0.0
 11
198.1230421388718
 21
120.9913072381945
 31
0.0
  0
LINE
  5
352
330
37
100
AcDbEntity
  8
Verdeckte Kanten(TC_020513_DIN)
 48
16.93275260925293
100
AcDbLine
 10
207.1230421388719
 20
118.9913072381945
 30
0.0
 11
200.1230421388718
 21
118.9913072381945
 31
0.0
  0
LINE
  5
353
330
37
100
AcDbEntity
  8
Verdeckte Kanten(TC_020513_DIN)
 48
16.93275260925293
100
AcDbLine
 10
207.1230421388719
 20
157.4913072381945
 30
0.0
 11
200.1230421388718
 21
157.4913072381945
 31
0.0
  0
LINE
  5
354
330
37
100
AcDbEntity
  8
Sichtbare Kanten(TC_020513_DIN)
100
AcDbLine
 10
207.1230421388719
 20
116.4913072381945
 30
0.0
 11
195.6230421388718
 21
116.4913072381945
 31
0.0
  0
LINE
  5
355
330
37
100
AcDbEntity
  8
Sichtbare Kanten(TC_020513_DIN)
100
AcDbLine
 10
207.1230421388719
 20
116.4913072381945
 30
0.0
 11
207.1230421388701
 21
122.4913072381945
 31
0.0
  0
LINE
  5
356
330
37
100
AcDbEntity
  8
Sichtbare Kanten(TC_020513_DIN)
100
AcDbLine
 10
207.1230421388719
 20
159.9913072381945
 30
0.0
 11
195.6230421388718
 21
159.9913072381945
 31
0.0
  0
LINE
  5
357
330
37
100
AcDbEntity
  8
Sichtbare Kanten(TC_020513_DIN)
100
AcDbLine
 10
207.1230421388701
 20
153.9913072381945
 30
0.0
 11
207.1230421388719
 21
159.9913072381945
 31
0.0
  0
LINE
  5
358
330
37
100
AcDbEntity
  8
Sichtbare Kanten(TC_020513_DIN)
100
AcDbLine
 10
207.1230421388701
 20
153.9913072381945
 30
0.0
 11
207.1230421388701
 21
122.4913072381945
 31
0.0
  0
ARC
  5
359
330
37
100
AcDbEntity
  8
Sichtbare Kanten(TC_020513_DIN)
100
AcDbCircle
 10
195.6230421388718
 20
158.9913072381945
 30
0.0
 40
0.9999999999999964
100
AcDbArc
 50
90.0
 51
180.0
  0
LINE
  5
35A
330
37
100
AcDbEntity
  8
Sichtbare Kanten(TC_020513_DIN)
100
AcDbLine
 10
194.6230421388704
 20
153.9913072381945
 30
0.0
 11
194.6230421388719
 21
158.9913072381945
 31
0.0
  0
LINE
  5
35B
330
37
100
AcDbEntity
  8
Sichtbare Kanten(TC_020513_DIN)
100
AcDbLine
 10
194.6230421388704
 20
153.9913072381945
 30
0.0
 11
194.6230421388704
 21
122.4913072381945
 31
0.0
  0
ARC
  5
35C
330
37
100
AcDbEntity
  8
Sichtbare Kanten(TC_020513_DIN)
100
AcDbCircle
 10
195.6230421388718
 20
117.4913072381945
 30
0.0
 40
0.9999999999999964
100
AcDbArc
 50
180.0
 51
270.0
  0
LINE
  5
35D
330
37
100
AcDbEntity
  8
Sichtbare Kanten(TC_020513_DIN)
100
AcDbLine
 10
194.6230421388719
 20
117.4913072381945
 30
0.0
 11
194.6230421388704
 21
122.4913072381945
 31
0.0
  0
LINE
  5
35E
330
37
100
AcDbEntity
  8
Sichtbare Kanten(TC_020513_DIN)
100
AcDbLine
 10
194.6230421388763
 20
116.4913072381943
 30
0.0
 11
194.6230421388761
 21
117.4913072381944
 31
0.0
  0
ARC
  5
35F
330
37
100
AcDbEntity
  8
Verdeckte Kanten(TC_020513_DIN)
 48
1.050302147865295
100
AcDbCircle
 10
210.6230421388765
 20
107.2950341623738
 30
0.0
 40
0.4999999999999761
100
AcDbArc
 50
0.0
 51
63.19495973349796
  0
LINE
  5
360
330
37
100
AcDbEntity
  8
Verdeckte Kanten(TC_020513_DIN)
 48
17.6674575805664
100
AcDbLine
 10
211.1230421388764
 20
99.99130723819451
 30
0.0
 11
211.1230421388764
 21
107.2950341623738
 31
0.0
  0
LINE
  5
361
330
37
100
AcDbEntity
  8
Verdeckte Kanten(TC_020513_DIN)
 48
16.93275260925293
100
AcDbLine
 10
203.1230421388763
 20
98.99130723819451
 30
0.0
 11
210.1230421388764
 21
98.99130723819451
 31
0.0
  0
ARC
  5
362
330
37
100
AcDbEntity
  8
Verdeckte Kanten(TC_020513_DIN)
 48
2.991790533065795
100
AcDbCircle
 10
210.1230421388763
 20
99.99130723819451
 30
0.0
 40
1.0
100
AcDbArc
 50
270.0000000000061
 51
0.0
  0
ARC
  5
363
330
37
100
AcDbEntity
  8
Sichtbare Kanten(TC_020513_DIN)
100
AcDbCircle
 10
210.6230421388765
 20
107.2950341623739
 30
0.0
 40
0.4999999999998966
100
AcDbArc
 50
63.19495973349336
 51
82.99999999999984
  0
LINE
  5
364
330
37
100
AcDbEntity
  8
Sichtbare Kanten(TC_020513_DIN)
100
AcDbLine
 10
210.683976810579
 20
107.7913072381945
 30
0.0
 11
207.0230421388763
 21
108.2408134943537
 31
0.0
  0
LINE
  5
365
330
37
100
AcDbEntity
  8
Sichtbare Kanten(TC_020513_DIN)
100
AcDbLine
 10
194.6230421388762
 20
116.4913072381945
 30
0.0
 11
199.9723658405174
 21
100.0277817466321
 31
0.0
  0
ARC
  5
366
330
37
100
AcDbEntity
  8
Sichtbare Kanten(TC_020513_DIN)
100
AcDbCircle
 10
201.3989506149602
 20
100.4913072381945
 30
0.0
 40
1.499999999999994
100
AcDbArc
 50
197.9999999999997
 51
270.0
  0
LINE
  5
367
330
37
100
AcDbEntity
  8
Sichtbare Kanten(TC_020513_DIN)
100
AcDbLine
 10
201.3989506149602
 20
98.99130723819451
 30
0.0
 11
203.1230421388763
 21
98.99130723819451
 31
0.0
  0
ARC
  5
368
330
37
100
AcDbEntity
  8
Verdeckte Kanten(TC_020513_DIN)
 48
9.646073341369628
100
AcDbCircle
 10
207.123042138876
 20
102.9913072381945
 30
0.0
 40
2.0
100
AcDbArc
 50
197.457603123721
 51
342.5423968762777
  0
LINE
  5
369
330
37
100
AcDbEntity
  8
Verdeckte Kanten(TC_020513_DIN)
 48
0.9674926996231079
100
AcDbLine
 10
207.023042138876
 20
107.7413072381945
 30
0.0
 11
207.023042138876
 21
107.2333036688948
 31
0.0
  0
LINE
  5
36A
330
37
100
AcDbEntity
  8
Sichtbare Kanten(TC_020513_DIN)
100
AcDbLine
 10
207.023042138876
 20
116.4913072381945
 30
0.0
 11
207.023042138876
 21
107.7413072381945
 31
0.0
  0
ARC
  5
36B
330
37
100
AcDbEntity
  8
Verdeckte Kanten(TC_020513_DIN)
 48
1.16059410572052
100
AcDbCircle
 10
207.123042138875
 20
102.9913072381945
 30
0.0
 40
2.000000000000237
100
AcDbArc
 50
180.0
 51
197.4576031237211
  0
ARC
  5
36C
330
37
100
AcDbEntity
  8
Verdeckte Kanten(TC_020513_DIN)
 48
5.983680725097656
100
AcDbCircle
 10
207.1230421388748
 20
102.9913072381945
 30
0.0
 40
2.000000000000001
100
AcDbArc
 50
90.0
 51
180.0
  0
ARC
  5
36D
330
37
100
AcDbEntity
  8
Verdeckte Kanten(TC_020513_DIN)
 48
7.144374847412109
100
AcDbCircle
 10
207.1230421388748
 20
102.9913072381945
 30
0.0
 40
2.000000000000001
100
AcDbArc
 50
342.5423968762781
 51
90.0
  0
LINE
  5
36E
330
37
100
AcDbEntity
  8
Verdeckte Kanten(TC_020513_DIN)
 48
7.267758846282958
100
AcDbLine
 10
209.0309205417087
 20
102.3913072381945
 30
0.0
 11
205.215163736041
 21
102.3913072381945
 31
0.0
  0
LINE
  5
36F
330
37
100
AcDbEntity
  8
Verdeckte Kanten(TC_020513_DIN)
 48
3.848769903182983
100
AcDbLine
 10
208.8730421388782
 20
81.99130723819449
 30
0.0
 11
207.1230421388779
 21
81.99130723819449
 31
0.0
  0
LINE
  5
370
330
37
100
AcDbEntity
  8
Verdeckte Kanten(TC_020513_DIN)
 48
1.90459656715393
100
AcDbLine
 10
208.8730421388782
 20
80.99130723819449
 30
0.0
 11
208.8730421388782
 21
81.99130723819449
 31
0.0
  0
LINE
  5
371
330
37
100
AcDbEntity
  8
Verdeckte Kanten(TC_020513_DIN)
 48
3.848769903182983
100
AcDbLine
 10
207.1230421388779
 20
80.99130723819449
 30
0.0
 11
208.8730421388782
 21
80.99130723819449
 31
0.0
  0
LINE
  5
372
330
37
100
AcDbEntity
  8
Verdeckte Kanten(TC_020513_DIN)
 48
20.36789894104004
100
AcDbLine
 10
207.1230421388785
 20
84.44934712974433
 30
0.0
 11
207.1230421388785
 21
78.53326734664467
 31
0.0
  0
LINE
  5
373
330
37
100
AcDbEntity
  8
Verdeckte Kanten(TC_020513_DIN)
 48
15.19880294799804
100
AcDbLine
 10
223.3730421388787
 20
83.49130723819449
 30
0.0
 11
223.3730421388787
 21
79.49130723819449
 31
0.0
  0
LINE
  5
374
330
37
100
AcDbEntity
  8
Verdeckte Kanten(TC_020513_DIN)
 48
2.856944799423217
100
AcDbLine
 10
209.6230421388787
 20
77.99130723819448
 30
0.0
 11
208.1230421388787
 21
77.99130723819448
 31
0.0
  0
LINE
  5
375
330
37
100
AcDbEntity
  8
Verdeckte Kanten(TC_020513_DIN)
 48
2.856944799423217
100
AcDbLine
 10
209.6230421388787
 20
84.99130723819451
 30
0.0
 11
208.1230421388787
 21
84.99130723819451
 31
0.0
  0
LINE
  5
376
330
37
100
AcDbEntity
  8
Verdeckte Kanten(TC_020513_DIN)
 48
0.6733119487762452
100
AcDbLine
 10
223.6230421388787
 20
79.74130723819449
 30
0.0
 11
223.3730421388787
 21
79.49130723819449
 31
0.0
  0
LINE
  5
377
330
37
100
AcDbEntity
  8
Verdeckte Kanten(TC_020513_DIN)
 48
0.6733119487762452
100
AcDbLine
 10
223.6230421388787
 20
83.2413072381945
 30
0.0
 11
223.3730421388787
 21
83.49130723819449
 31
0.0
  0
LINE
  5
378
330
37
100
AcDbEntity
  8
Verdeckte Kanten(TC_020513_DIN)
 48
8.475799560546875
100
AcDbLine
 10
214.0730421388787
 20
79.49130723819449
 30
0.0
 11
209.6230421388787
 21
79.49130723819449
 31
0.0
  0
LINE
  5
379
330
37
100
AcDbEntity
  8
Verdeckte Kanten(TC_020513_DIN)
 48
16.12643051147461
100
AcDbLine
 10
219.6230421388787
 20
83.49130723819451
 30
0.0
 11
209.6230421388787
 21
83.49130723819451
 31
0.0
  0
LINE
  5
37A
330
37
100
AcDbEntity
  8
Verdeckte Kanten(TC_020513_DIN)
 48
1.90459656715393
100
AcDbLine
 10
208.8730421388785
 20
80.99130723819449
 30
0.0
 11
208.8730421388785
 21
79.99130723819449
 31
0.0
  0
LINE
  5
37B
330
37
100
AcDbEntity
  8
Verdeckte Kanten(TC_020513_DIN)
 48
1.649415612220764
100
AcDbLine
 10
208.8730421388785
 20
79.99130723819449
 30
0.0
 11
208.1230421388785
 21
79.55829453630227
 31
0.0
  0
LINE
  5
37C
330
37
100
AcDbEntity
  8
Verdeckte Kanten(TC_020513_DIN)
 48
1.649415612220764
100
AcDbLine
 10
208.1230421388785
 20
83.42431994008672
 30
0.0
 11
208.8730421388785
 21
82.99130723819448
 31
0.0
  0
LINE
  5
37D
330
37
100
AcDbEntity
  8
Verdeckte Kanten(TC_020513_DIN)
 48
1.90459656715393
100
AcDbLine
 10
208.8730421388785
 20
82.99130723819448
 30
0.0
 11
208.8730421388785
 21
81.99130723819449
 31
0.0
  0
LINE
  5
37E
330
37
100
AcDbEntity
  8
Verdeckte Kanten(TC_020513_DIN)
 48
2.916159868240356
100
AcDbLine
 10
208.1230421388785
 20
79.55829453630227
 30
0.0
 11
208.1230421388785
 21
78.02720562305673
 31
0.0
  0
LINE
  5
37F
330
37
100
AcDbEntity
  8
Verdeckte Kanten(TC_020513_DIN)
 48
0.9522482752799987
100
AcDbLine
 10
207.6230421388785
 20
78.02720562305673
 30
0.0
 11
208.1230421388785
 21
78.02720562305673
 31
0.0
  0
POLYLINE
  5
380
330
37
100
AcDbEntity
  8
Verdeckte Kanten(TC_020513_DIN)
 48
1.50395905971527
100
AcDb2dPolyline
 66
     1
 10
0.0
 20
0.0
 30
0.0
 70
   128
  0
VERTEX
  5
381
330
380
100
AcDbEntity
  8
Verdeckte Kanten(TC_020513_DIN)
 48
1.50395905971527
100
AcDbVertex
100
AcDb2dVertex
 10
207.1230411852042
 20
78.53326729879096
 30
0.0
  0
VERTEX
  5
382
330
380
100
AcDbEntity
  8
Verdeckte Kanten(TC_020513_DIN)
 48
1.50395905971527
100
AcDbVertex
100
AcDb2dVertex
 10
207.1242046678702
 20
78.50143543824867
 30
0.0
  0
VERTEX
  5
384
330
380
100
AcDbEntity
  8
Verdeckte Kanten(TC_020513_DIN)
 48
1.50395905971527
100
AcDbVertex
100
AcDb2dVertex
 10
207.1275973642508
 20
78.46851340875343
 30
0.0
  0
VERTEX
  5
385
330
380
100
AcDbEntity
  8
Verdeckte Kanten(TC_020513_DIN)
 48
1.50395905971527
100
AcDbVertex
100
AcDb2dVertex
 10
207.1330786073844
 20
78.43522600278571
 30
0.0
  0
VERTEX
  5
386
330
380
100
AcDbEntity
  8
Verdeckte Kanten(TC_020513_DIN)
 48
1.50395905971527
100
AcDbVertex
100
AcDb2dVertex
 10
207.1405124986808
 20
78.40229860887244
 30
0.0
  0
VERTEX
  5
387
330
380
100
AcDbEntity
  8
Verdeckte Kanten(TC_020513_DIN)
 48
1.50395905971527
100
AcDbVertex
100
AcDb2dVertex
 10
207.1497583711783
 20
78.37045631751731
 30
0.0
  0
VERTEX
  5
388
330
380
100
AcDbEntity
  8
Verdeckte Kanten(TC_020513_DIN)
 48
1.50395905971527
100
AcDbVertex
100
AcDb2dVertex
 10
207.1606755579154
 20
78.34042421922401
 30
0.0
  0
VERTEX
  5
389
330
380
100
AcDbEntity
  8
Verdeckte Kanten(TC_020513_DIN)
 48
1.50395905971527
100
AcDbVertex
100
AcDb2dVertex
 10
207.1736932123343
 20
78.31145367965415
 30
0.0
  0
VERTEX
  5
38A
330
380
100
AcDbEntity
  8
Verdeckte Kanten(TC_020513_DIN)
 48
1.50395905971527
100
AcDbVertex
100
AcDb2dVertex
 10
207.1892333353202
 20
78.28229657754615
 30
0.0
  0
VERTEX
  5
38B
330
380
100
AcDbEntity
  8
Verdeckte Kanten(TC_020513_DIN)
 48
1.50395905971527
100
AcDbVertex
100
AcDb2dVertex
 10
207.2068906152884
 20
78.25357339725211
 30
0.0
  0
VERTEX
  5
38C
330
380
100
AcDbEntity
  8
Verdeckte Kanten(TC_020513_DIN)
 48
1.50395905971527
100
AcDbVertex
100
AcDb2dVertex
 10
207.2262549722831
 20
78.22591296777442
 30
0.0
  0
VERTEX
  5
38D
330
380
100
AcDbEntity
  8
Verdeckte Kanten(TC_020513_DIN)
 48
1.50395905971527
100
AcDbVertex
100
AcDb2dVertex
 10
207.2469091737906
 20
78.19994411811546
 30
0.0
  0
VERTEX
  5
38E
330
380
100
AcDbEntity
  8
Verdeckte Kanten(TC_020513_DIN)
 48
1.50395905971527
100
AcDbVertex
100
AcDb2dVertex
 10
207.2684479082267
 20
78.17629537925437
 30
0.0
  0
VERTEX
  5
38F
330
380
100
AcDbEntity
  8
Verdeckte Kanten(TC_020513_DIN)
 48
1.50395905971527
100
AcDbVertex
100
AcDb2dVertex
 10
207.2915077531974
 20
78.15448544368461
 30
0.0
  0
VERTEX
  5
390
330
380
100
AcDbEntity
  8
Verdeckte Kanten(TC_020513_DIN)
 48
1.50395905971527
100
AcDbVertex
100
AcDb2dVertex
 10
207.3170018518607
 20
78.13348434314445
 30
0.0
  0
VERTEX
  5
391
330
380
100
AcDbEntity
  8
Verdeckte Kanten(TC_020513_DIN)
 48
1.50395905971527
100
AcDbVertex
100
AcDb2dVertex
 10
207.3443079317252
 20
78.11371109828666
 30
0.0
  0
VERTEX
  5
392
330
380
100
AcDbEntity
  8
Verdeckte Kanten(TC_020513_DIN)
 48
1.50395905971527
100
AcDbVertex
100
AcDb2dVertex
 10
207.3727941835563
 20
78.09559516057685
 30
0.0
  0
VERTEX
  5
393
330
380
100
AcDbEntity
  8
Verdeckte Kanten(TC_020513_DIN)
 48
1.50395905971527
100
AcDbVertex
100
AcDb2dVertex
 10
207.4018287981192
 20
78.07956568345741
 30
0.0
  0
VERTEX
  5
394
330
380
100
AcDbEntity
  8
Verdeckte Kanten(TC_020513_DIN)
 48
1.50395905971527
100
AcDbVertex
100
AcDb2dVertex
 10
207.4307823503653
 20
78.06605152234748
 30
0.0
  0
VERTEX
  5
395
330
380
100
AcDbEntity
  8
Verdeckte Kanten(TC_020513_DIN)
 48
1.50395905971527
100
AcDbVertex
100
AcDb2dVertex
 10
207.4605083788077
 20
78.05481694087699
 30
0.0
  0
VERTEX
  5
396
330
380
100
AcDbEntity
  8
Verdeckte Kanten(TC_020513_DIN)
 48
1.50395905971527
100
AcDbVertex
100
AcDb2dVertex
 10
207.4921679819266
 20
78.04528437003806
 30
0.0
  0
VERTEX
  5
397
330
380
100
AcDbEntity
  8
Verdeckte Kanten(TC_020513_DIN)
 48
1.50395905971527
100
AcDbVertex
100
AcDb2dVertex
 10
207.5250053728263
 20
78.03760401353553
 30
0.0
  0
VERTEX
  5
398
330
380
100
AcDbEntity
  8
Verdeckte Kanten(TC_020513_DIN)
 48
1.50395905971527
100
AcDbVertex
100
AcDb2dVertex
 10
207.5582695329825
 20
78.03192905530647
 30
0.0
  0
VERTEX
  5
399
330
380
100
AcDbEntity
  8
Verdeckte Kanten(TC_020513_DIN)
 48
1.50395905971527
100
AcDbVertex
100
AcDb2dVertex
 10
207.591199907128
 20
78.02841208324149
 30
0.0
  0
VERTEX
  5
39A
330
380
100
AcDbEntity
  8
Verdeckte Kanten(TC_020513_DIN)
 48
1.50395905971527
100
AcDbVertex
100
AcDb2dVertex
 10
207.6230430925528
 20
78.02720568523124
 30
0.0
  0
SEQEND
  5
383
330
380
100
AcDbEntity
  8
Verdeckte Kanten(TC_020513_DIN)
 48
1.50395905971527
  0
POLYLINE
  5
39B
330
37
100
AcDbEntity
  8
Verdeckte Kanten(TC_020513_DIN)
 48
1.503958344459533
100
AcDb2dPolyline
 66
     1
 10
0.0
 20
0.0
 30
0.0
 70
   128
  0
VERTEX
  5
39C
330
39B
100
AcDbEntity
  8
Verdeckte Kanten(TC_020513_DIN)
 48
1.503958344459533
100
AcDbVertex
100
AcDb2dVertex
 10
207.6230430925528
 20
84.95540879115777
 30
0.0
  0
VERTEX
  5
39D
330
39B
100
AcDbEntity
  8
Verdeckte Kanten(TC_020513_DIN)
 48
1.503958344459533
100
AcDbVertex
100
AcDb2dVertex
 10
207.591199907128
 20
84.95420239314752
 30
0.0
  0
VERTEX
  5
39F
330
39B
100
AcDbEntity
  8
Verdeckte Kanten(TC_020513_DIN)
 48
1.503958344459533
100
AcDbVertex
100
AcDb2dVertex
 10
207.5582695329825
 20
84.95068571910577
 30
0.0
  0
VERTEX
  5
3A0
330
39B
100
AcDbEntity
  8
Verdeckte Kanten(TC_020513_DIN)
 48
1.503958344459533
100
AcDbVertex
100
AcDb2dVertex
 10
207.5250053728263
 20
84.94501016483026
 30
0.0
  0
VERTEX
  5
3A1
330
39B
100
AcDbEntity
  8
Verdeckte Kanten(TC_020513_DIN)
 48
1.503958344459533
100
AcDbVertex
100
AcDb2dVertex
 10
207.4921679819266
 20
84.9373295103045
 30
0.0
  0
VERTEX
  5
3A2
330
39B
100
AcDbEntity
  8
Verdeckte Kanten(TC_020513_DIN)
 48
1.503958344459533
100
AcDbVertex
100
AcDb2dVertex
 10
207.4605083788077
 20
84.92779753551202
 30
0.0
  0
VERTEX
  5
3A3
330
39B
100
AcDbEntity
  8
Verdeckte Kanten(TC_020513_DIN)
 48
1.503958344459533
100
AcDbVertex
100
AcDb2dVertex
 10
207.4307823503653
 20
84.91656325206475
 30
0.0
  0
VERTEX
  5
3A4
330
39B
100
AcDbEntity
  8
Verdeckte Kanten(TC_020513_DIN)
 48
1.503958344459533
100
AcDbVertex
100
AcDb2dVertex
 10
207.4018287981192
 20
84.90304849490838
 30
0.0
  0
VERTEX
  5
3A5
330
39B
100
AcDbEntity
  8
Verdeckte Kanten(TC_020513_DIN)
 48
1.503958344459533
100
AcDbVertex
100
AcDb2dVertex
 10
207.3727941835563
 20
84.88701961383538
 30
0.0
  0
VERTEX
  5
3A6
330
39B
100
AcDbEntity
  8
Verdeckte Kanten(TC_020513_DIN)
 48
1.503958344459533
100
AcDbVertex
100
AcDb2dVertex
 10
207.3443079317252
 20
84.86890337810235
 30
0.0
  0
VERTEX
  5
3A7
330
39B
100
AcDbEntity
  8
Verdeckte Kanten(TC_020513_DIN)
 48
1.503958344459533
100
AcDbVertex
100
AcDb2dVertex
 10
207.3170018518607
 20
84.84913013324456
 30
0.0
  0
VERTEX
  5
3A8
330
39B
100
AcDbEntity
  8
Verdeckte Kanten(TC_020513_DIN)
 48
1.503958344459533
100
AcDbVertex
100
AcDb2dVertex
 10
207.2915077531974
 20
84.8281290327044
 30
0.0
  0
VERTEX
  5
3A9
330
39B
100
AcDbEntity
  8
Verdeckte Kanten(TC_020513_DIN)
 48
1.503958344459533
100
AcDbVertex
100
AcDb2dVertex
 10
207.2684479082267
 20
84.80631969318109
 30
0.0
  0
VERTEX
  5
3AA
330
39B
100
AcDbEntity
  8
Verdeckte Kanten(TC_020513_DIN)
 48
1.503958344459533
100
AcDbVertex
100
AcDb2dVertex
 10
207.2469091737906
 20
84.78267095432
 30
0.0
  0
VERTEX
  5
3AB
330
39B
100
AcDbEntity
  8
Verdeckte Kanten(TC_020513_DIN)
 48
1.503958344459533
100
AcDbVertex
100
AcDb2dVertex
 10
207.2262549722831
 20
84.75670121059136
 30
0.0
  0
VERTEX
  5
3AC
330
39B
100
AcDbEntity
  8
Verdeckte Kanten(TC_020513_DIN)
 48
1.503958344459533
100
AcDbVertex
100
AcDb2dVertex
 10
207.2068906152884
 20
84.7290410791369
 30
0.0
  0
VERTEX
  5
3AD
330
39B
100
AcDbEntity
  8
Verdeckte Kanten(TC_020513_DIN)
 48
1.503958344459533
100
AcDbVertex
100
AcDb2dVertex
 10
207.1892333353202
 20
84.70031760081964
 30
0.0
  0
VERTEX
  5
3AE
330
39B
100
AcDbEntity
  8
Verdeckte Kanten(TC_020513_DIN)
 48
1.503958344459533
100
AcDbVertex
100
AcDb2dVertex
 10
207.1736932123343
 20
84.67116020068841
 30
0.0
  0
VERTEX
  5
3AF
330
39B
100
AcDbEntity
  8
Verdeckte Kanten(TC_020513_DIN)
 48
1.503958344459533
100
AcDbVertex
100
AcDb2dVertex
 10
207.1606755579154
 20
84.64218995914178
 30
0.0
  0
VERTEX
  5
3B0
330
39B
100
AcDbEntity
  8
Verdeckte Kanten(TC_020513_DIN)
 48
1.503958344459533
100
AcDbVertex
100
AcDb2dVertex
 10
207.1497583711783
 20
84.61215756282525
 30
0.0
  0
VERTEX
  5
3B1
330
39B
100
AcDbEntity
  8
Verdeckte Kanten(TC_020513_DIN)
 48
1.503958344459533
100
AcDbVertex
100
AcDb2dVertex
 10
207.1405124986808
 20
84.58031556949334
 30
0.0
  0
VERTEX
  5
3B2
330
39B
100
AcDbEntity
  8
Verdeckte Kanten(TC_020513_DIN)
 48
1.503958344459533
100
AcDbVertex
100
AcDb2dVertex
 10
207.1330786073844
 20
84.54738877162652
 30
0.0
  0
VERTEX
  5
3B3
330
39B
100
AcDbEntity
  8
Verdeckte Kanten(TC_020513_DIN)
 48
1.503958344459533
100
AcDbVertex
100
AcDb2dVertex
 10
207.1275973642508
 20
84.51410076961236
 30
0.0
  0
VERTEX
  5
3B4
330
39B
100
AcDbEntity
  8
Verdeckte Kanten(TC_020513_DIN)
 48
1.503958344459533
100
AcDbVertex
100
AcDb2dVertex
 10
207.1242046678702
 20
84.48117874011712
 30
0.0
  0
VERTEX
  5
3B5
330
39B
100
AcDbEntity
  8
Verdeckte Kanten(TC_020513_DIN)
 48
1.503958344459533
100
AcDbVertex
100
AcDb2dVertex
 10
207.1230411852042
 20
84.44934747562127
 30
0.0
  0
SEQEND
  5
39E
330
39B
100
AcDbEntity
  8
Verdeckte Kanten(TC_020513_DIN)
 48
1.503958344459533
  0
LINE
  5
3B6
330
37
100
AcDbEntity
  8
Verdeckte Kanten(TC_020513_DIN)
 48
0.9522482752799987
100
AcDbLine
 10
208.1230421388785
 20
84.95540885333227
 30
0.0
 11
207.6230421388785
 21
84.95540885333227
 31
0.0
  0
LINE
  5
3B7
330
37
100
AcDbEntity
  8
Verdeckte Kanten(TC_020513_DIN)
 48
2.916159868240356
100
AcDbLine
 10
208.1230421388785
 20
84.95540885333227
 30
0.0
 11
208.1230421388785
 21
83.42431994008672
 31
0.0
  0
LINE
  5
3B8
330
37
100
AcDbEntity
  8
Verdeckte Kanten(TC_020513_DIN)
 48
0.9555177092552185
100
AcDbLine
 10
208.1230421388785
 20
84.95540885333227
 30
0.0
 11
208.1230421388787
 21
84.99130723819451
 31
0.0
  0
LINE
  5
3B9
330
37
100
AcDbEntity
  8
Verdeckte Kanten(TC_020513_DIN)
 48
0.9555177092552185
100
AcDbLine
 10
208.1230421388787
 20
77.99130723819448
 30
0.0
 11
208.1230421388785
 21
78.02720562305673
 31
0.0
  0
LINE
  5
3BA
330
37
100
AcDbEntity
  8
Sichtbare Kanten(TC_020513_DIN)
100
AcDbLine
 10
260.1230421388665
 20
73.9913072381945
 30
0.0
 11
265.1230421388679
 21
73.9913072381945
 31
0.0
  0
LINE
  5
3BB
330
37
100
AcDbEntity
  8
Sichtbare Kanten(TC_020513_DIN)
100
AcDbLine
 10
260.1230421388664
 20
73.9913072381945
 30
0.0
 11
224.6230421388664
 21
73.9913072381945
 31
0.0
  0
LINE
  5
3BC
330
37
100
AcDbEntity
  8
Sichtbare Kanten(TC_020513_DIN)
100
AcDbLine
 10
219.6230421388679
 20
73.9913072381945
 30
0.0
 11
224.6230421388664
 21
73.9913072381945
 31
0.0
  0
LINE
  5
3BD
330
37
100
AcDbEntity
  8
Sichtbare Kanten(TC_020513_DIN)
100
AcDbLine
 10
219.6230421388679
 20
73.9913072381945
 30
0.0
 11
219.6230421388679
 21
77.49130723819449
 31
0.0
  0
LINE
  5
3BE
330
37
100
AcDbEntity
  8
Sichtbare Kanten(TC_020513_DIN)
100
AcDbLine
 10
265.1230421388679
 20
73.9913072381945
 30
0.0
 11
265.1230421388679
 21
77.49130723819449
 31
0.0
  0
LINE
  5
3BF
330
37
100
AcDbEntity
  8
Verdeckte Kanten(TC_020513_DIN)
 48
6.666337966918945
100
AcDbLine
 10
260.1230421388717
 20
73.9913072381945
 30
0.0
 11
260.1230421388717
 21
77.49130723819449
 31
0.0
  0
LINE
  5
3C0
330
37
100
AcDbEntity
  8
Verdeckte Kanten(TC_020513_DIN)
 48
6.666337966918945
100
AcDbLine
 10
224.6230421388717
 20
73.9913072381945
 30
0.0
 11
224.6230421388717
 21
77.49130723819449
 31
0.0
  0
LINE
  5
3C1
330
37
100
AcDbEntity
  8
Verdeckte Kanten(TC_020513_DIN)
 48
2.856944799423217
100
AcDbLine
 10
223.8730421388683
 20
73.9913072381945
 30
0.0
 11
223.8730421388683
 21
75.49130723819449
 31
0.0
  0
LINE
  5
3C2
330
37
100
AcDbEntity
  8
Verdeckte Kanten(TC_020513_DIN)
 48
2.856944799423217
100
AcDbLine
 10
228.3730421388683
 20
73.9913072381945
 30
0.0
 11
228.3730421388683
 21
75.49130723819449
 31
0.0
  0
LINE
  5
3C3
330
37
100
AcDbEntity
  8
Verdeckte Kanten(TC_020513_DIN)
 48
2.856944799423217
100
AcDbLine
 10
256.3730421388683
 20
73.9913072381945
 30
0.0
 11
256.3730421388683
 21
75.49130723819449
 31
0.0
  0
LINE
  5
3C4
330
37
100
AcDbEntity
  8
Verdeckte Kanten(TC_020513_DIN)
 48
2.856944799423217
100
AcDbLine
 10
260.8730421388683
 20
73.9913072381945
 30
0.0
 11
260.8730421388683
 21
75.49130723819449
 31
0.0
  0
LINE
  5
3C5
330
37
100
AcDbEntity
  8
Sichtbare Kanten(TC_020513_DIN)
100
AcDbLine
 10
219.6230421388679
 20
77.49130723819449
 30
0.0
 11
224.6230421388664
 21
77.49130723819449
 31
0.0
  0
LINE
  5
3C6
330
37
100
AcDbEntity
  8
Sichtbare Kanten(TC_020513_DIN)
100
AcDbLine
 10
260.1230421388664
 20
77.49130723819449
 30
0.0
 11
224.6230421388664
 21
77.49130723819449
 31
0.0
  0
LINE
  5
3C7
330
37
100
AcDbEntity
  8
Sichtbare Kanten(TC_020513_DIN)
100
AcDbLine
 10
260.1230421388664
 20
77.49130723819449
 30
0.0
 11
265.1230421388679
 21
77.49130723819449
 31
0.0
  0
LINE
  5
3C8
330
37
100
AcDbEntity
  8
Verdeckte Kanten(TC_020513_DIN)
 48
17.09865379333496
100
AcDbLine
 10
223.8730421388683
 20
75.49130723819449
 30
0.0
 11
228.3730421388683
 21
75.49130723819449
 31
0.0
  0
LINE
  5
3C9
330
37
100
AcDbEntity
  8
Verdeckte Kanten(TC_020513_DIN)
 48
17.09865379333496
100
AcDbLine
 10
256.3730421388683
 20
75.49130723819449
 30
0.0
 11
260.8730421388683
 21
75.49130723819449
 31
0.0
  0
LINE
  5
3CA
330
37
100
AcDbEntity
  8
Verdeckte Kanten(TC_020513_DIN)
 48
8.571034431457519
100
AcDbLine
 10
223.9230421388683
 20
75.49130723819449
 30
0.0
 11
223.9230421388683
 21
79.99130723819449
 31
0.0
  0
LINE
  5
3CB
330
37
100
AcDbEntity
  8
Verdeckte Kanten(TC_020513_DIN)
 48
8.571034431457519
100
AcDbLine
 10
228.3230421388683
 20
75.49130723819449
 30
0.0
 11
228.3230421388683
 21
79.99130723819449
 31
0.0
  0
LINE
  5
3CC
330
37
100
AcDbEntity
  8
Verdeckte Kanten(TC_020513_DIN)
 48
8.571034431457519
100
AcDbLine
 10
256.4230421388683
 20
75.49130723819449
 30
0.0
 11
256.4230421388683
 21
79.99130723819449
 31
0.0
  0
LINE
  5
3CD
330
37
100
AcDbEntity
  8
Verdeckte Kanten(TC_020513_DIN)
 48
8.571034431457519
100
AcDbLine
 10
260.8230421388683
 20
75.49130723819449
 30
0.0
 11
260.8230421388683
 21
79.99130723819449
 31
0.0
  0
LINE
  5
3CE
330
37
100
AcDbEntity
  8
Sichtbare Kanten(TC_020513_DIN)
100
AcDbLine
 10
220.6230421388679
 20
77.49130723819449
 30
0.0
 11
220.6230421388679
 21
78.9913072381945
 31
0.0
  0
LINE
  5
3CF
330
37
100
AcDbEntity
  8
Sichtbare Kanten(TC_020513_DIN)
100
AcDbLine
 10
264.1230421388679
 20
77.49130723819449
 30
0.0
 11
264.1230421388679
 21
78.9913072381945
 31
0.0
  0
LINE
  5
3D0
330
37
100
AcDbEntity
  8
Verdeckte Kanten(TC_020513_DIN)
 48
8.975571632385253
100
AcDbLine
 10
261.1230421388716
 20
82.99130723819448
 30
0.0
 11
258.1230421388707
 21
82.99130723819448
 31
0.0
  0
LINE
  5
3D1
330
37
100
AcDbEntity
  8
Verdeckte Kanten(TC_020513_DIN)
 48
9.047208786010742
100
AcDbLine
 10
253.3730421388707
 20
82.99130723819448
 30
0.0
 11
258.1230421388707
 21
82.99130723819448
 31
0.0
  0
LINE
  5
3D2
330
37
100
AcDbEntity
  8
Verdeckte Kanten(TC_020513_DIN)
 48
9.047208786010742
100
AcDbLine
 10
258.1230421388707
 20
90.99130723819449
 30
0.0
 11
253.3730421388707
 21
90.99130723819449
 31
0.0
  0
LINE
  5
3D3
330
37
100
AcDbEntity
  8
Verdeckte Kanten(TC_020513_DIN)
 48
19.35171699523926
100
AcDbLine
 10
253.3730421388707
 20
90.99130723819449
 30
0.0
 11
253.3730421388707
 21
82.99130723819448
 31
0.0
  0
LINE
  5
3D4
330
37
100
AcDbEntity
  8
Verdeckte Kanten(TC_020513_DIN)
 48
8.975571632385253
100
AcDbLine
 10
258.1230421388707
 20
90.99130723819449
 30
0.0
 11
261.1230421388716
 21
90.99130723819449
 31
0.0
  0
LINE
  5
3D5
330
37
100
AcDbEntity
  8
Verdeckte Kanten(TC_020513_DIN)
 48
19.35171699523926
100
AcDbLine
 10
261.1230421388729
 20
82.99130723819448
 30
0.0
 11
261.1230421388729
 21
90.99130723819449
 31
0.0
  0
LINE
  5
3D6
330
37
100
AcDbEntity
  8
Verdeckte Kanten(TC_020513_DIN)
 48
10.47573089599609
100
AcDbLine
 10
261.1230421388716
 20
77.49130723819449
 30
0.0
 11
261.1230421388716
 21
82.99130723819448
 31
0.0
  0
LINE
  5
3D7
330
37
100
AcDbEntity
  8
Verdeckte Kanten(TC_020513_DIN)
 48
15.72327041625976
100
AcDbLine
 10
223.6230421388716
 20
90.99130723819449
 30
0.0
 11
223.6230421388716
 21
97.49130723819449
 31
0.0
  0
LINE
  5
3D8
330
37
100
AcDbEntity
  8
Verdeckte Kanten(TC_020513_DIN)
 48
10.47573089599609
100
AcDbLine
 10
223.6230421388716
 20
77.49130723819449
 30
0.0
 11
223.6230421388716
 21
82.99130723819448
 31
0.0
  0
LINE
  5
3D9
330
37
100
AcDbEntity
  8
Verdeckte Kanten(TC_020513_DIN)
 48
15.72327041625976
100
AcDbLine
 10
261.1230421388716
 20
90.99130723819449
 30
0.0
 11
261.1230421388716
 21
97.49130723819449
 31
0.0
  0
LINE
  5
3DA
330
37
100
AcDbEntity
  8
Sichtbare Kanten(TC_020513_DIN)
100
AcDbLine
 10
264.1230421388716
 20
80.99130723819449
 30
0.0
 11
264.1230421388716
 21
97.49130723819449
 31
0.0
  0
LINE
  5
3DB
330
37
100
AcDbEntity
  8
Sichtbare Kanten(TC_020513_DIN)
100
AcDbLine
 10
220.6230421388716
 20
80.99130723819449
 30
0.0
 11
220.6230421388716
 21
97.49130723819449
 31
0.0
  0
LINE
  5
3DC
330
37
100
AcDbEntity
  8
Verdeckte Kanten(TC_020513_DIN)
 48
8.975571632385253
100
AcDbLine
 10
223.6230421388716
 20
90.99130723819449
 30
0.0
 11
226.6230421388707
 21
90.99130723819449
 31
0.0
  0
LINE
  5
3DD
330
37
100
AcDbEntity
  8
Verdeckte Kanten(TC_020513_DIN)
 48
9.047208786010742
100
AcDbLine
 10
226.6230421388707
 20
82.99130723819448
 30
0.0
 11
231.3730421388707
 21
82.99130723819448
 31
0.0
  0
LINE
  5
3DE
330
37
100
AcDbEntity
  8
Verdeckte Kanten(TC_020513_DIN)
 48
19.35171699523926
100
AcDbLine
 10
231.3730421388707
 20
82.99130723819448
 30
0.0
 11
231.3730421388707
 21
90.99130723819449
 31
0.0
  0
LINE
  5
3DF
330
37
100
AcDbEntity
  8
Verdeckte Kanten(TC_020513_DIN)
 48
9.047208786010742
100
AcDbLine
 10
231.3730421388707
 20
90.99130723819449
 30
0.0
 11
226.6230421388707
 21
90.99130723819449
 31
0.0
  0
LINE
  5
3E0
330
37
100
AcDbEntity
  8
Verdeckte Kanten(TC_020513_DIN)
 48
8.975571632385253
100
AcDbLine
 10
226.6230421388707
 20
82.99130723819448
 30
0.0
 11
223.6230421388716
 21
82.99130723819448
 31
0.0
  0
LINE
  5
3E1
330
37
100
AcDbEntity
  8
Verdeckte Kanten(TC_020513_DIN)
 48
19.35171699523926
100
AcDbLine
 10
223.6230421388729
 20
90.99130723819449
 30
0.0
 11
223.6230421388729
 21
82.99130723819448
 31
0.0
  0
CIRCLE
  5
3E2
330
37
100
AcDbEntity
  8
Verdeckte Kanten(TC_020513_DIN)
 48
15.19880294799804
100
AcDbCircle
 10
242.3730421388707
 20
92.99130723819448
 30
0.0
 40
1.499999999999998
  0
CIRCLE
  5
3E3
330
37
100
AcDbEntity
  8
Sichtbare Kanten(TC_020513_DIN)
100
AcDbCircle
 10
242.3730421388698
 20
92.99130723819448
 30
0.0
 40
3.999999999999986
  0
CIRCLE
  5
3E4
330
37
100
AcDbEntity
  8
Sichtbare Kanten(TC_020513_DIN)
100
AcDbCircle
 10
242.3730421388679
 20
92.99130723819448
 30
0.0
 40
2.499999999999999
  0
LINE
  5
3E5
330
37
100
AcDbEntity
  8
Sichtbare Kanten(TC_020513_DIN)
100
AcDbLine
 10
221.6230421388679
 20
79.99130723819449
 30
0.0
 11
224.623042138867
 21
79.99130723819449
 31
0.0
  0
LINE
  5
3E6
330
37
100
AcDbEntity
  8
Sichtbare Kanten(TC_020513_DIN)
100
AcDbLine
 10
260.123042138867
 20
79.99130723819449
 30
0.0
 11
224.623042138867
 21
79.99130723819449
 31
0.0
  0
LINE
  5
3E7
330
37
100
AcDbEntity
  8
Sichtbare Kanten(TC_020513_DIN)
100
AcDbLine
 10
260.123042138867
 20
79.99130723819449
 30
0.0
 11
263.1230421388679
 21
79.99130723819449
 31
0.0
  0
LINE
  5
3E8
330
37
100
AcDbEntity
  8
Sichtbare Kanten(TC_020513_DIN)
100
AcDbLine
 10
220.6230426157087
 20
80.99130711898522
 30
0.0
 11
220.6230426157073
 21
78.9913072381945
 31
0.0
  0
LINE
  5
3E9
330
37
100
AcDbEntity
  8
Sichtbare Kanten(TC_020513_DIN)
100
AcDbLine
 10
264.1230416620329
 20
78.9913072381945
 30
0.0
 11
264.1230416620345
 21
80.99130711898522
 31
0.0
  0
ARC
  5
3EA
330
37
100
AcDbEntity
  8
Sichtbare Kanten(TC_020513_DIN)
100
AcDbCircle
 10
221.6230421388679
 20
78.9913072381945
 30
0.0
 40
1.000000000000004
100
AcDbArc
 50
90.0
 51
180.0
  0
ARC
  5
3EB
330
37
100
AcDbEntity
  8
Sichtbare Kanten(TC_020513_DIN)
100
AcDbCircle
 10
263.1230421388679
 20
78.9913072381945
 30
0.0
 40
0.9999999999999964
100
AcDbArc
 50
0.0
 51
90.0
  0
LINE
  5
3EC
330
37
100
AcDbEntity
  8
Verdeckte Kanten(TC_020513_DIN)
 48
9.274760246276855
100
AcDbLine
 10
257.4230421388722
 20
88.99130723819451
 30
0.0
 11
254.3230421388722
 21
88.99130723819451
 31
0.0
  0
LINE
  5
3ED
330
37
100
AcDbEntity
  8
Verdeckte Kanten(TC_020513_DIN)
 48
9.274760246276855
100
AcDbLine
 10
230.4230421388722
 20
88.99130723819451
 30
0.0
 11
227.3230421388722
 21
88.99130723819451
 31
0.0
  0
LINE
  5
3EE
330
37
100
AcDbEntity
  8
Verdeckte Kanten(TC_020513_DIN)
 48
14.5137882232666
100
AcDbLine
 10
254.6430421388722
 20
82.99130723819448
 30
0.0
 11
254.6430421388722
 21
88.99130723819451
 31
0.0
  0
LINE
  5
3EF
330
37
100
AcDbEntity
  8
Verdeckte Kanten(TC_020513_DIN)
 48
14.5137882232666
100
AcDbLine
 10
257.1030421388722
 20
82.99130723819448
 30
0.0
 11
257.1030421388722
 21
88.99130723819451
 31
0.0
  0
LINE
  5
3F0
330
37
100
AcDbEntity
  8
Verdeckte Kanten(TC_020513_DIN)
 48
3.809293270111083
100
AcDbLine
 10
254.3230421388722
 20
88.99130723819451
 30
0.0
 11
254.3230421388722
 21
90.99130723819449
 31
0.0
  0
LINE
  5
3F1
330
37
100
AcDbEntity
  8
Verdeckte Kanten(TC_020513_DIN)
 48
3.809293270111083
100
AcDbLine
 10
257.4230421388722
 20
88.99130723819451
 30
0.0
 11
257.4230421388722
 21
90.99130723819449
 31
0.0
  0
LINE
  5
3F2
330
37
100
AcDbEntity
  8
Verdeckte Kanten(TC_020513_DIN)
 48
14.5137882232666
100
AcDbLine
 10
227.6430421388722
 20
82.99130723819448
 30
0.0
 11
227.6430421388722
 21
88.99130723819451
 31
0.0
  0
LINE
  5
3F3
330
37
100
AcDbEntity
  8
Verdeckte Kanten(TC_020513_DIN)
 48
14.5137882232666
100
AcDbLine
 10
230.1030421388721
 20
82.99130723819448
 30
0.0
 11
230.1030421388721
 21
88.99130723819451
 31
0.0
  0
LINE
  5
3F4
330
37
100
AcDbEntity
  8
Verdeckte Kanten(TC_020513_DIN)
 48
3.809293270111083
100
AcDbLine
 10
227.3230421388722
 20
88.99130723819451
 30
0.0
 11
227.3230421388722
 21
90.99130723819449
 31
0.0
  0
LINE
  5
3F5
330
37
100
AcDbEntity
  8
Verdeckte Kanten(TC_020513_DIN)
 48
3.809293270111083
100
AcDbLine
 10
230.4230421388721
 20
88.99130723819451
 30
0.0
 11
230.4230421388721
 21
90.99130723819449
 31
0.0
  0
LINE
  5
3F6
330
37
100
AcDbEntity
  8
Verdeckte Kanten(TC_020513_DIN)
 48
14.5137882232666
100
AcDbLine
 10
254.3730421388722
 20
88.99130723819451
 30
0.0
 11
254.3730421388722
 21
82.99130723819448
 31
0.0
  0
LINE
  5
3F7
330
37
100
AcDbEntity
  8
Verdeckte Kanten(TC_020513_DIN)
 48
14.5137882232666
100
AcDbLine
 10
257.3730421388721
 20
82.99130723819448
 30
0.0
 11
257.3730421388721
 21
88.99130723819451
 31
0.0
  0
LINE
  5
3F8
330
37
100
AcDbEntity
  8
Verdeckte Kanten(TC_020513_DIN)
 48
14.5137882232666
100
AcDbLine
 10
227.3730421388721
 20
88.99130723819451
 30
0.0
 11
227.3730421388721
 21
82.99130723819448
 31
0.0
  0
LINE
  5
3F9
330
37
100
AcDbEntity
  8
Verdeckte Kanten(TC_020513_DIN)
 48
14.5137882232666
100
AcDbLine
 10
230.3730421388721
 20
82.99130723819448
 30
0.0
 11
230.3730421388721
 21
88.99130723819451
 31
0.0
  0
LINE
  5
3FA
330
37
100
AcDbEntity
  8
Verdeckte Kanten(TC_020513_DIN)
 48
0.3808393180370331
100
AcDbLine
 10
264.1230421388784
 20
91.29488705188059
 30
0.0
 11
263.9230421388783
 21
91.29488705188059
 31
0.0
  0
LINE
  5
3FB
330
37
100
AcDbEntity
  8
Verdeckte Kanten(TC_020513_DIN)
 48
0.3808393180370331
100
AcDbLine
 10
264.1230421388787
 20
89.74130723819449
 30
0.0
 11
263.9230421388787
 21
89.74130723819449
 31
0.0
  0
LINE
  5
3FC
330
37
100
AcDbEntity
  8
Verdeckte Kanten(TC_020513_DIN)
 48
0.3808393180370331
100
AcDbLine
 10
264.1230421388787
 20
91.0200627508348
 30
0.0
 11
263.9230421388787
 21
91.0200627508348
 31
0.0
  0
LINE
  5
3FD
330
37
100
AcDbEntity
  8
Verdeckte Kanten(TC_020513_DIN)
 48
0.3808393180370331
100
AcDbLine
 10
264.1230421388779
 20
86.65573004817183
 30
0.0
 11
263.9230421388778
 21
86.65573004817183
 31
0.0
  0
LINE
  5
3FE
330
37
100
AcDbEntity
  8
Verdeckte Kanten(TC_020513_DIN)
 48
18.15231132507324
100
AcDbLine
 10
263.9230421388758
 20
88.99130723819451
 30
0.0
 11
263.9230421388787
 21
83.36630723819451
 31
0.0
  0
LINE
  5
3FF
330
37
100
AcDbEntity
  8
Verdeckte Kanten(TC_020513_DIN)
 48
18.15231132507324
100
AcDbLine
 10
263.9230421388787
 20
94.61630723819451
 30
0.0
 11
263.9230421388758
 21
88.99130723819451
 31
0.0
  0
LINE
  5
400
330
37
100
AcDbEntity
  8
Verdeckte Kanten(TC_020513_DIN)
 48
0.3808393180370331
100
AcDbLine
 10
264.1230421388787
 20
94.61630723819451
 30
0.0
 11
263.9230421388787
 21
94.61630723819451
 31
0.0
  0
LINE
  5
401
330
37
100
AcDbEntity
  8
Verdeckte Kanten(TC_020513_DIN)
 48
0.3808393180370331
100
AcDbLine
 10
264.1230421388758
 20
88.99130723819451
 30
0.0
 11
263.9230421388758
 21
88.99130723819451
 31
0.0
  0
LINE
  5
402
330
37
100
AcDbEntity
  8
Verdeckte Kanten(TC_020513_DIN)
 48
0.3808393180370331
100
AcDbLine
 10
264.1230421388787
 20
83.36630723819451
 30
0.0
 11
263.9230421388787
 21
83.36630723819451
 31
0.0
  0
LINE
  5
403
330
37
100
AcDbEntity
  8
Verdeckte Kanten(TC_020513_DIN)
 48
0.3808393180370331
100
AcDbLine
 10
264.1230421388787
 20
94.18337461262323
 30
0.0
 11
263.9230421388787
 21
94.18337461262323
 31
0.0
  0
LINE
  5
404
330
37
100
AcDbEntity
  8
Verdeckte Kanten(TC_020513_DIN)
 48
0.3808393180370331
100
AcDbLine
 10
264.1230421388787
 20
83.79923986376574
 30
0.0
 11
263.9230421388787
 21
83.79923986376574
 31
0.0
  0
LINE
  5
405
330
37
100
AcDbEntity
  8
Verdeckte Kanten(TC_020513_DIN)
 48
0.3808393180370331
100
AcDbLine
 10
264.1230421388797
 20
90.93746135129407
 30
0.0
 11
263.9230421388797
 21
90.93746135129407
 31
0.0
  0
LINE
  5
406
330
37
100
AcDbEntity
  8
Verdeckte Kanten(TC_020513_DIN)
 48
0.3808393180370331
100
AcDbLine
 10
264.1230421388797
 20
89.36630723819449
 30
0.0
 11
263.9230421388797
 21
89.36630723819449
 31
0.0
  0
LINE
  5
407
330
37
100
AcDbEntity
  8
Verdeckte Kanten(TC_020513_DIN)
 48
0.3808393180370331
100
AcDbLine
 10
264.1230421388797
 20
88.61630723819448
 30
0.0
 11
263.9230421388797
 21
88.61630723819448
 31
0.0
  0
LINE
  5
408
330
37
100
AcDbEntity
  8
Verdeckte Kanten(TC_020513_DIN)
 48
0.3808393180370331
100
AcDbLine
 10
264.1230421388797
 20
87.0451531250949
 30
0.0
 11
263.9230421388797
 21
87.0451531250949
 31
0.0
  0
LINE
  5
409
330
37
100
AcDbEntity
  8
Verdeckte Kanten(TC_020513_DIN)
 48
0.3808393180370331
100
AcDbLine
 10
264.1230421388782
 20
92.8271247460961
 30
0.0
 11
263.9230421388782
 21
92.8271247460961
 31
0.0
  0
LINE
  5
40A
330
37
100
AcDbEntity
  8
Verdeckte Kanten(TC_020513_DIN)
 48
0.3808393180370331
100
AcDbLine
 10
264.1230421388791
 20
85.15548973029288
 30
0.0
 11
263.9230421388791
 21
85.15548973029288
 31
0.0
  0
LINE
  5
40B
330
37
100
AcDbEntity
  8
Verdeckte Kanten(TC_020513_DIN)
 48
0.3808393180370331
100
AcDbLine
 10
264.1230421388777
 20
91.91847089994226
 30
0.0
 11
263.9230421388778
 21
91.91847089994226
 31
0.0
  0
LINE
  5
40C
330
37
100
AcDbEntity
  8
Verdeckte Kanten(TC_020513_DIN)
 48
0.3808393180370331
100
AcDbLine
 10
264.1230421388787
 20
84.29010511490828
 30
0.0
 11
263.9230421388787
 21
84.29010511490828
 31
0.0
  0
LINE
  5
40D
330
37
100
AcDbEntity
  8
Verdeckte Kanten(TC_020513_DIN)
 48
0.3808393180370331
100
AcDbLine
 10
264.1230421388773
 20
86.92952819183133
 30
0.0
 11
263.9230421388774
 21
86.92952819183133
 31
0.0
  0
LINE
  5
40E
330
37
100
AcDbEntity
  8
Verdeckte Kanten(TC_020513_DIN)
 48
0.3808393180370331
100
AcDbLine
 10
264.1230421388773
 20
91.05308628455764
 30
0.0
 11
263.9230421388774
 21
91.05308628455764
 31
0.0
  0
LINE
  5
40F
330
37
100
AcDbEntity
  8
Verdeckte Kanten(TC_020513_DIN)
 48
0.3808393180370331
100
AcDbLine
 10
264.1230421388796
 20
91.96174013071148
 30
0.0
 11
263.9230421388796
 21
91.96174013071148
 31
0.0
  0
LINE
  5
410
330
37
100
AcDbEntity
  8
Verdeckte Kanten(TC_020513_DIN)
 48
0.3808393180370331
100
AcDbLine
 10
264.1230421388802
 20
89.91366320763455
 30
0.0
 11
263.9230421388802
 21
89.91366320763455
 31
0.0
  0
LINE
  5
411
330
37
100
AcDbEntity
  8
Verdeckte Kanten(TC_020513_DIN)
 48
0.3808393180370331
100
AcDbLine
 10
264.1230421388802
 20
88.06895126875444
 30
0.0
 11
263.9230421388802
 21
88.06895126875444
 31
0.0
  0
LINE
  5
412
330
37
100
AcDbEntity
  8
Verdeckte Kanten(TC_020513_DIN)
 48
0.3808393180370331
100
AcDbLine
 10
264.1230421388796
 20
86.02087434567749
 30
0.0
 11
263.9230421388796
 21
86.02087434567749
 31
0.0
  0
LINE
  5
413
330
37
100
AcDbEntity
  8
Sichtbare Kanten(TC_020513_DIN)
100
AcDbLine
 10
220.6230421388742
 20
78.24130723819449
 30
0.0
 11
218.6230421388742
 21
78.24130723819449
 31
0.0
  0
LINE
  5
414
330
37
100
AcDbEntity
  8
Sichtbare Kanten(TC_020513_DIN)
100
AcDbLine
 10
218.6230421388742
 20
78.24130723819449
 30
0.0
 11
218.6230421388742
 21
76.24130723819449
 31
0.0
  0
LINE
  5
415
330
37
100
AcDbEntity
  8
Sichtbare Kanten(TC_020513_DIN)
100
AcDbLine
 10
218.6230421388742
 20
76.24130723819449
 30
0.0
 11
204.1230421388742
 21
76.24130723819449
 31
0.0
  0
LINE
  5
416
330
37
100
AcDbEntity
  8
Sichtbare Kanten(TC_020513_DIN)
100
AcDbLine
 10
212.0730421388742
 20
107.7413072381945
 30
0.0
 11
214.0730421388742
 21
97.24130723819451
 31
0.0
  0
LINE
  5
417
330
37
100
AcDbEntity
  8
Sichtbare Kanten(TC_020513_DIN)
100
AcDbLine
 10
204.1230421388742
 20
107.7413072381945
 30
0.0
 11
212.0730421388742
 21
107.7413072381945
 31
0.0
  0
ARC
  5
418
330
37
100
AcDbEntity
  8
Sichtbare Kanten(TC_020513_DIN)
100
AcDbCircle
 10
204.1230421388742
 20
106.7413072381945
 30
0.0
 40
1.000000000000005
100
AcDbArc
 50
90.0
 51
180.0
  0
LINE
  5
419
330
37
100
AcDbEntity
  8
Sichtbare Kanten(TC_020513_DIN)
100
AcDbLine
 10
203.1230421388742
 20
77.24130723819451
 30
0.0
 11
203.1230421388742
 21
106.7413072381945
 31
0.0
  0
ARC
  5
41A
330
37
100
AcDbEntity
  8
Sichtbare Kanten(TC_020513_DIN)
100
AcDbCircle
 10
204.1230421388742
 20
77.24130723819451
 30
0.0
 40
1.000000000000002
100
AcDbArc
 50
180.0
 51
270.0
  0
LINE
  5
41B
330
37
100
AcDbEntity
  8
Sichtbare Kanten(TC_020513_DIN)
100
AcDbLine
 10
220.6230421388754
 20
82.49130723819449
 30
0.0
 11
214.0730421388754
 21
82.49130723819449
 31
0.0
  0
LINE
  5
41C
330
37
100
AcDbEntity
  8
Sichtbare Kanten(TC_020513_DIN)
100
AcDbLine
 10
214.0730421388742
 20
79.49130723819449
 30
0.0
 11
220.6230421388742
 21
79.49130723819449
 31
0.0
  0
LINE
  5
41D
330
37
100
AcDbEntity
  8
Sichtbare Kanten(TC_020513_DIN)
100
AcDbLine
 10
214.0730421388779
 20
97.24130723819449
 30
0.0
 11
220.6230421388778
 21
97.24130723819449
 31
0.0
  0
LINE
  5
41E
330
37
100
AcDbEntity
  8
Sichtbare Kanten(TC_020513_DIN)
100
AcDbLine
 10
214.0730421388742
 20
79.49130723819449
 30
0.0
 11
214.0730421388742
 21
97.24130723819451
 31
0.0
  0
LINE
  5
41F
330
37
100
AcDbEntity
  8
Verdeckte Kanten(TC_020513_DIN)
 48
3.714058399200439
100
AcDbLine
 10
214.0730421388759
 20
97.24130723819449
 30
0.0
 11
212.123042138876
 21
97.24130723819449
 31
0.0
  0
LINE
  5
420
330
37
100
AcDbEntity
  8
Verdeckte Kanten(TC_020513_DIN)
 48
22.37542343139649
100
AcDbLine
 10
210.123042138876
 20
85.4913072381945
 30
0.0
 11
210.123042138876
 21
76.24130723819449
 31
0.0
  0
LINE
  5
421
330
37
100
AcDbEntity
  8
Verdeckte Kanten(TC_020513_DIN)
 48
19.22108840942383
100
AcDbLine
 10
212.123042138876
 20
97.24130723819449
 30
0.0
 11
210.123042138876
 21
85.4913072381945
 31
0.0
  0
ARC
  5
422
330
37
100
AcDbEntity
  8
Verdeckte Kanten(TC_020513_DIN)
 48
1.153595089912414
100
AcDbCircle
 10
213.0797533392639
 20
99.79327529043903
 30
0.0
 40
0.499999999999992
100
AcDbArc
 50
15.59066933100968
 51
84.99999999999916
  0
LINE
  5
423
330
37
100
AcDbEntity
  8
Verdeckte Kanten(TC_020513_DIN)
 48
19.42634010314941
100
AcDbLine
 10
213.1233312106377
 20
100.2913726394849
 30
0.0
 11
205.1230421388747
 21
100.9913072381945
 31
0.0
  0
LINE
  5
424
330
37
100
AcDbEntity
  8
Verdeckte Kanten(TC_020513_DIN)
 48
7.618686199188232
100
AcDbLine
 10
205.1230421388747
 20
100.9913072381945
 30
0.0
 11
205.1230421388747
 21
104.9913072381945
 31
0.0
  0
LINE
  5
425
330
37
100
AcDbEntity
  8
Verdeckte Kanten(TC_020513_DIN)
 48
16.62267684936523
100
AcDbLine
 10
205.1230421388747
 20
104.9913072381945
 30
0.0
 11
211.9948568420627
 21
104.9913072381945
 31
0.0
  0
ARC
  5
426
330
37
100
AcDbEntity
  8
Verdeckte Kanten(TC_020513_DIN)
 48
1.585862398147583
100
AcDbCircle
 10
211.9948568420627
 20
105.4913072381945
 30
0.0
 40
0.4999999999999983
100
AcDbArc
 50
270.0
 51
5.415673790219281
  0
ARC
  5
427
330
37
100
AcDbEntity
  8
Verdeckte Kanten(TC_020513_DIN)
 48
1.090693354606628
100
AcDbCircle
 10
214.8730421388751
 20
85.79130723819458
 30
0.0
 40
5.249999999998915
100
AcDbArc
 50
173.7499999999996
 51
180.0
  0
ARC
  5
428
330
37
100
AcDbEntity
  8
Verdeckte Kanten(TC_020513_DIN)
 48
0.9868083000183105
100
AcDbCircle
 10
214.8730421388754
 20
85.79130723819453
 30
0.0
 40
4.749999999999229
100
AcDbArc
 50
173.7499999999994
 51
180.0
  0
LINE
  5
429
330
37
100
AcDbEntity
  8
Verdeckte Kanten(TC_020513_DIN)
 48
0.571308970451355
100
AcDbLine
 10
210.1230421388762
 20
85.79130723819449
 30
0.0
 11
210.1230421388762
 21
85.49130723819443
 31
0.0
  0
LINE
  5
42A
330
37
100
AcDbEntity
  8
Verdeckte Kanten(TC_020513_DIN)
 48
18.16990852355957
100
AcDbLine
 10
211.7867685890712
 20
101.2420145228091
 30
0.0
 11
210.1512745323201
 21
86.30842489374131
 31
0.0
  0
LINE
  5
42B
330
37
100
AcDbEntity
  8
Verdeckte Kanten(TC_020513_DIN)
 48
18.16990852355957
100
AcDbLine
 10
209.654246363209
 20
86.3628583311673
 30
0.0
 11
211.28974041996
 21
101.2964479602351
 31
0.0
  0
LINE
  5
42C
330
37
100
AcDbEntity
  8
Verdeckte Kanten(TC_020513_DIN)
 48
18.86792373657226
100
AcDbLine
 10
209.6230421388761
 20
77.99130723819451
 30
0.0
 11
209.6230421388761
 21
85.79130723819449
 31
0.0
  0
LINE
  5
42D
330
37
100
AcDbEntity
  8
Verdeckte Kanten(TC_020513_DIN)
 48
0.9522482752799987
100
AcDbLine
 10
209.6230421388763
 20
77.29130723819451
 30
0.0
 11
210.1230421388764
 21
77.29130723819449
 31
0.0
  0
LINE
  5
42E
330
37
100
AcDbEntity
  8
Verdeckte Kanten(TC_020513_DIN)
 48
1.861520767211914
100
AcDbLine
 10
211.8876001640963
 20
102.1627010620531
 30
0.0
 11
211.9626492237768
 21
102.8479691342217
 31
0.0
  0
LINE
  5
42F
330
37
100
AcDbEntity
  8
Verdeckte Kanten(TC_020513_DIN)
 48
1.861520767211914
100
AcDbLine
 10
211.8618176487519
 20
101.9272825949776
 30
0.0
 11
211.7867685890715
 21
101.2420145228091
 31
0.0
  0
LINE
  5
430
330
37
100
AcDbEntity
  8
Verdeckte Kanten(TC_020513_DIN)
 48
1.861520767211914
100
AcDbLine
 10
211.28974041996
 20
101.2964479602351
 30
0.0
 11
211.3647894796404
 21
101.9817160324037
 31
0.0
  0
LINE
  5
431
330
37
100
AcDbEntity
  8
Verdeckte Kanten(TC_020513_DIN)
 48
1.861520767211914
100
AcDbLine
 10
211.4656210546652
 20
102.9024025716477
 30
0.0
 11
211.3905719949847
 21
102.2171344994792
 31
0.0
  0
LINE
  5
432
330
37
100
AcDbEntity
  8
Verdeckte Kanten(TC_020513_DIN)
 48
2.094223260879516
100
AcDbLine
 10
209.6230421388764
 20
77.29130723819451
 30
0.0
 11
209.6230421388762
 21
77.99130723819451
 31
0.0
  0
LINE
  5
433
330
37
100
AcDbEntity
  8
Verdeckte Kanten(TC_020513_DIN)
 48
0.3997104167938232
100
AcDbLine
 10
212.1579250479411
 20
107.2956719656086
 30
0.0
 11
211.9492650049068
 21
107.3185239569075
 31
0.0
  0
LINE
  5
434
330
37
100
AcDbEntity
  8
Verdeckte Kanten(TC_020513_DIN)
 48
2.094223260879516
100
AcDbLine
 10
211.8730581925101
 20
106.6226845201518
 30
0.0
 11
211.9492650049068
 21
107.3185239569075
 31
0.0
  0
LINE
  5
435
330
37
100
AcDbEntity
  8
Sichtbare Kanten(TC_020513_DIN)
100
AcDbLine
 10
212.4462931740179
 20
107.2640905194815
 30
0.0
 11
212.3700863616214
 21
106.5682510827258
 31
0.0
  0
LINE
  5
436
330
37
100
AcDbEntity
  8
Sichtbare Kanten(TC_020513_DIN)
100
AcDbLine
 10
212.4462931740179
 20
107.2640905194815
 30
0.0
 11
212.1579250479411
 21
107.2956719656086
 31
0.0
  0
LINE
  5
437
330
37
100
AcDbEntity
  8
Verdeckte Kanten(TC_020513_DIN)
 48
7.128276824951171
100
AcDbLine
 10
211.4656210546653
 20
102.9024025716477
 30
0.0
 11
211.8730581925102
 21
106.6226845201518
 31
0.0
  0
LINE
  5
438
330
37
100
AcDbEntity
  8
Verdeckte Kanten(TC_020513_DIN)
 48
6.658156394958496
100
AcDbLine
 10
212.3432156457184
 20
106.3228963272765
 30
0.0
 11
211.9626492237765
 21
102.8479691342217
 31
0.0
  0
LINE
  5
439
330
37
100
AcDbEntity
  8
Sichtbare Kanten(TC_020513_DIN)
100
AcDbLine
 10
212.3700863616213
 20
106.5682510827258
 30
0.0
 11
212.3432156457184
 21
106.3228963272765
 31
0.0
  0
LINE
  5
43A
330
37
100
AcDbEntity
  8
Verdeckte Kanten(TC_020513_DIN)
 48
2.597576856613159
100
AcDbLine
 10
211.8618176487517
 20
101.9272825949777
 30
0.0
 11
211.887600164096
 21
102.1627010620532
 31
0.0
  0
LINE
  5
43B
330
37
100
AcDbEntity
  8
Verdeckte Kanten(TC_020513_DIN)
 48
2.597576856613159
100
AcDbLine
 10
211.3905719949848
 20
102.2171344994791
 30
0.0
 11
211.3647894796405
 21
101.9817160324037
 31
0.0
  0
LINE
  5
43C
330
37
100
AcDbEntity
  8
Verdeckte Kanten(TC_020513_DIN)
 48
18.99850463867187
100
AcDbLine
 10
219.6230421388787
 20
83.99130723819451
 30
0.0
 11
219.6230421388787
 21
78.99130723819451
 31
0.0
  0
LINE
  5
43D
330
37
100
AcDbEntity
  8
Verdeckte Kanten(TC_020513_DIN)
 48
0.4760741591453553
100
AcDbLine
 10
223.6230421388787
 20
79.49130723819449
 30
0.0
 11
223.3730421388787
 21
79.49130723819449
 31
0.0
  0
LINE
  5
43E
330
37
100
AcDbEntity
  8
Verdeckte Kanten(TC_020513_DIN)
 48
0.4760741591453553
100
AcDbLine
 10
223.6230421388787
 20
83.49130723819449
 30
0.0
 11
223.3730421388787
 21
83.49130723819449
 31
0.0
  0
LINE
  5
43F
330
37
100
AcDbEntity
  8
Verdeckte Kanten(TC_020513_DIN)
 48
16.12643051147461
100
AcDbLine
 10
219.6230421388787
 20
78.99130723819451
 30
0.0
 11
209.6230421388787
 21
78.99130723819451
 31
0.0
  0
LINE
  5
440
330
37
100
AcDbEntity
  8
Verdeckte Kanten(TC_020513_DIN)
 48
16.12643051147461
100
AcDbLine
 10
219.6230421388787
 20
83.99130723819451
 30
0.0
 11
209.6230421388787
 21
83.99130723819451
 31
0.0
  0
LINE
  5
441
330
37
100
AcDbEntity
  8
Skizziergeometrie(TC_020513_DIN)
100
AcDbLine
 10
27.11378977010246
 20
129.9574165917358
 30
0.0
 11
64.11378977010247
 21
129.9574165917358
 31
0.0
  0
LINE
  5
442
330
37
100
AcDbEntity
  8
Skizziergeometrie(TC_020513_DIN)
100
AcDbLine
 10
64.11378977010247
 20
129.9574165917358
 30
0.0
 11
64.11378977010247
 21
75.95741659173589
 31
0.0
  0
LINE
  5
443
330
37
100
AcDbEntity
  8
Skizziergeometrie(TC_020513_DIN)
100
AcDbLine
 10
64.11378977010247
 20
75.95741659173589
 30
0.0
 11
27.11378977010246
 21
75.95741659173588
 31
0.0
  0
LINE
  5
444
330
37
100
AcDbEntity
  8
Skizziergeometrie(TC_020513_DIN)
100
AcDbLine
 10
27.11378977010246
 20
75.95741659173588
 30
0.0
 11
27.11378977010246
 21
129.9574165917359
 31
0.0
  0
CIRCLE
  5
445
330
37
100
AcDbEntity
  8
Skizziergeometrie(TC_020513_DIN)
100
AcDbCircle
 10
29.61378977010247
 20
137.9574165917359
 30
0.0
 40
2.25
  0
CIRCLE
  5
446
330
37
100
AcDbEntity
  8
Skizziergeometrie(TC_020513_DIN)
100
AcDbCircle
 10
29.61378977010247
 20
67.95741659173588
 30
0.0
 40
2.25
  0
CIRCLE
  5
447
330
37
100
AcDbEntity
  8
Skizziergeometrie(TC_020513_DIN)
100
AcDbCircle
 10
61.61378977010246
 20
67.95741659173588
 30
0.0
 40
2.25
  0
CIRCLE
  5
448
330
37
100
AcDbEntity
  8
Skizziergeometrie(TC_020513_DIN)
100
AcDbCircle
 10
61.61378977010246
 20
137.9574165917359
 30
0.0
 40
2.25
  0
MTEXT
  5
449
330
37
100
AcDbEntity
  8
Symbole(TC_020513_DIN)
 62
     7
100
AcDbMText
 10
36.95691522665296
 20
162.8371612984643
 30
0.0
 40
3.499999940395355
 41
27.99199819564819
 71
     1
 72
     1
  1
{panel cut out}
  7
STANDARD-TC_020513_DIN
 73
     1
 44
1.0
1001
ACAD
1000
MTEXTBEGIN
1070
    73
1070
     1
1070
    44
1040
1.0
1070
    74
1070
     0
1000
MTEXTEND
  0
LINE
  5
44A
330
37
100
AcDbEntity
  8
Mittelpunktmarkierung(TC_020513_DIN)
  6
CHAIN
 48
10.55637073516845
100
AcDbLine
 10
34.36378977010246
 20
137.9574165917359
 30
0.0
 11
24.86378977010247
 21
137.9574165917359
 31
0.0
  0
LINE
  5
44B
330
37
100
AcDbEntity
  8
Mittelpunktmarkierung(TC_020513_DIN)
  6
CHAIN
 48
10.55637073516845
100
AcDbLine
 10
29.61378977010247
 20
142.7074165917358
 30
0.0
 11
29.61378977010247
 21
133.2074165917359
 31
0.0
  0
LINE
  5
44C
330
37
100
AcDbEntity
  8
Mittelpunktmarkierung(TC_020513_DIN)
  6
CHAIN
 48
10.55637073516845
100
AcDbLine
 10
66.36378977010245
 20
137.9574165917359
 30
0.0
 11
56.86378977010246
 21
137.9574165917359
 31
0.0
  0
LINE
  5
44D
330
37
100
AcDbEntity
  8
Mittelpunktmarkierung(TC_020513_DIN)
  6
CHAIN
 48
10.55637073516845
100
AcDbLine
 10
61.61378977010246
 20
142.7074165917358
 30
0.0
 11
61.61378977010246
 21
133.2074165917359
 31
0.0
  0
LINE
  5
44E
330
37
100
AcDbEntity
  8
Mittelpunktmarkierung(TC_020513_DIN)
  6
CHAIN
 48
10.55637073516845
100
AcDbLine
 10
66.36378977010245
 20
67.95741659173588
 30
0.0
 11
56.86378977010246
 21
67.95741659173588
 31
0.0
  0
LINE
  5
44F
330
37
100
AcDbEntity
  8
Mittelpunktmarkierung(TC_020513_DIN)
  6
CHAIN
 48
10.55637073516845
100
AcDbLine
 10
61.61378977010246
 20
72.70741659173587
 30
0.0
 11
61.61378977010246
 21
63.20741659173588
 31
0.0
  0
LINE
  5
450
330
37
100
AcDbEntity
  8
Mittelpunktmarkierung(TC_020513_DIN)
  6
CHAIN
 48
10.55637073516845
100
AcDbLine
 10
34.36378977010246
 20
67.95741659173588
 30
0.0
 11
24.86378977010247
 21
67.95741659173588
 31
0.0
  0
LINE
  5
451
330
37
100
AcDbEntity
  8
Mittelpunktmarkierung(TC_020513_DIN)
  6
CHAIN
 48
10.55637073516845
100
AcDbLine
 10
29.61378977010247
 20
72.70741659173587
 30
0.0
 11
29.61378977010247
 21
63.20741659173588
 31
0.0
  0
LINE
  5
452
330
37
100
AcDbEntity
  8
Mittellinie(TC_020513_DIN)
  6
CHAIN
 48
23.99096870422363
100
AcDbLine
 10
45.61378977010246
 20
73.45741659173589
 30
0.0
 11
45.61378977010246
 21
132.4574165917358
 31
0.0
  0
LINE
  5
453
330
37
100
AcDbEntity
  8
Mittellinie(TC_020513_DIN)
  6
CHAIN
 48
23.99096870422363
100
AcDbLine
 10
24.61378977010246
 20
102.9574165917358
 30
0.0
 11
66.61378977010247
 21
102.9574165917358
 31
0.0
  0
DIMENSION
  5
454
330
37
100
AcDbEntity
  8
Bemaßungen(TC_020513_DIN)
  6
Continuous
 62
     7
370
    25
100
AcDbDimension
  2
*D11
 10
27.66523261158736
 20
136.8324165917359
 30
0.0
 11
44.30482065997443
 21
146.4392872306746
 31
0.0
 70
   163
  1
<>
 42
4.500000000000042
  3
STANDARD-TC_020513_DIN
100
AcDbDiametricDimension
 15
31.56234692861757
 25
139.0824165917356
 35
0.0
 40
0.0
1001
ACAD
1000
DSTYLE
1002
{
1070
   289
1070
     2
1070
   271
1070
     2
1070
   272
1070
     2
1070
    48
1040
0.0
1070
    47
1040
0.0
1002
}
  0
DIMENSION
  5
4F6
330
37
100
AcDbEntity
  8
Bemaßungen(TC_020513_DIN)
  6
Continuous
 62
     7
370
    25
100
AcDbDimension
  2
*D12
 10
74.11378977010248
 20
75.95741659173589
 30
0.0
 11
74.11378977010247
 21
102.9574165917358
 31
0.0
 70
   160
  1
<>
 42
53.99999999999998
  3
STANDARD-TC_020513_DIN
100
AcDbAlignedDimension
 13
64.11378977010247
 23
129.9574165917358
 33
0.0
 14
64.11378977010247
 24
75.95741659173589
 34
0.0
 50
270.0
100
AcDbRotatedDimension
1001
ACAD
1000
DSTYLE
1002
{
1070
   271
1070
     2
1070
   272
1070
     2
1070
    48
1040
0.0
1070
    47
1040
0.0
1002
}
  0
DIMENSION
  5
5BB
330
37
100
AcDbEntity
  8
Bemaßungen(TC_020513_DIN)
  6
Continuous
 62
     7
370
    25
100
AcDbDimension
  2
*D13
 10
19.61378977010247
 20
67.95741659173588
 30
0.0
 11
19.61378977010246
 21
102.9574165917358
 31
0.0
 70
   160
  1
<>
 42
70.00000000000001
  3
STANDARD-TC_020513_DIN
100
AcDbAlignedDimension
 13
29.61378977010247
 23
137.9574165917359
 33
0.0
 14
29.61378977010247
 24
67.95741659173588
 34
0.0
 50
90.0
100
AcDbRotatedDimension
1001
ACAD
1000
DSTYLE
1002
{
1070
   271
1070
     2
1070
   272
1070
     2
1070
    48
1040
0.0
1070
    47
1040
0.0
1002
}
  0
DIMENSION
  5
676
330
37
100
AcDbEntity
  8
Bemaßungen(TC_020513_DIN)
  6
Continuous
 62
     7
370
    25
100
AcDbDimension
  2
*D14
 10
61.61378977010246
 20
57.95741659173588
 30
0.0
 11
45.61378977010246
 21
57.95741659173588
 31
0.0
 70
   160
  1
<>
 42
31.99999999999999
  3
STANDARD-TC_020513_DIN
100
AcDbAlignedDimension
 13
29.61378977010247
 23
67.95741659173588
 33
0.0
 14
61.61378977010246
 24
67.95741659173588
 34
0.0
 50
180.0
100
AcDbRotatedDimension
1001
ACAD
1000
DSTYLE
1002
{
1070
   271
1070
     2
1070
   272
1070
     2
1070
    48
1040
0.0
1070
    47
1040
0.0
1002
}
  0
DIMENSION
  5
73B
330
37
100
AcDbEntity
  8
Bemaßungen(TC_020513_DIN)
  6
Continuous
 62
     7
370
    25
100
AcDbDimension
  2
*D15
 10
64.11378977010247
 20
47.95741659173588
 30
0.0
 11
45.61378977010246
 21
47.95741659173588
 31
0.0
 70
   160
  1
<>
 42
37.00000000000001
  3
STANDARD-TC_020513_DIN
100
AcDbAlignedDimension
 13
27.11378977010246
 23
75.95741659173588
 33
0.0
 14
64.11378977010247
 24
75.95741659173589
 34
0.0
100
AcDbRotatedDimension
1001
ACAD
1000
DSTYLE
1002
{
1070
   271
1070
     2
1070
   272
1070
     2
1070
    48
1040
0.0
1070
    47
1040
0.0
1002
}
  0
LINE
  5
800
330
37
100
AcDbEntity
  8
Mittellinie(TC_020513_DIN)
  6
CHAIN
 48
10.55637073516845
100
AcDbLine
 10
98.7149922663505
 20
72.99130723819449
 30
0.0
 11
98.7149922663505
 21
82.49130723819449
 31
0.0
  0
LINE
  5
801
330
37
100
AcDbEntity
  8
Mittellinie(TC_020513_DIN)
  6
CHAIN
 48
10.55637073516845
100
AcDbLine
 10
168.7149922663505
 20
72.99130723819449
 30
0.0
 11
168.7149922663505
 21
82.49130723819449
 31
0.0
  0
LINE
  5
802
330
37
100
AcDbEntity
  8
Mittellinie(TC_020513_DIN)
  6
CHAIN
 48
11.11197376251221
100
AcDbLine
 10
162.7149922663504
 20
92.99130723819448
 30
0.0
 11
172.7149922663504
 21
92.99130723819448
 31
0.0
  0
LINE
  5
803
330
37
100
AcDbEntity
  8
Mittellinie(TC_020513_DIN)
  6
CHAIN
 48
11.11197376251221
100
AcDbLine
 10
94.71499226635049
 20
92.99130723819448
 30
0.0
 11
104.7149922663505
 21
92.99130723819448
 31
0.0
  0
LINE
  5
804
330
37
100
AcDbEntity
  8
Mittellinie(TC_020513_DIN)
  6
CHAIN
 48
23.99096870422363
100
AcDbLine
 10
133.7149922663505
 20
71.44713506937124
 30
0.0
 11
133.7149922663505
 21
163.6731090217234
 31
0.0
  0
DIMENSION
  5
805
330
37
100
AcDbEntity
  8
Bemaßungen(TC_020513_DIN)
  6
Continuous
 62
     7
370
    25
100
AcDbDimension
  2
*D16
 10
174.9649922663505
 20
63.9913072381945
 30
0.0
 11
133.7149922663505
 21
63.9913072381945
 31
0.0
 70
   160
  1
<>
 42
82.5
  3
STANDARD-TC_020513_DIN
100
AcDbAlignedDimension
 13
92.4649922663505
 23
73.9913072381945
 33
0.0
 14
174.9649922663505
 24
73.9913072381945
 34
0.0
100
AcDbRotatedDimension
1001
ACAD
1000
DSTYLE
1002
{
1070
   271
1070
     2
1070
   272
1070
     2
1070
    48
1040
0.0
1070
    47
1040
0.0
1002
}
  0
LINE
  5
8C5
330
37
100
AcDbEntity
  8
Mittellinie(TC_020513_DIN)
  6
CHAIN
 48
10.55637073516845
100
AcDbLine
 10
258.6230421388683
 20
72.99130723819449
 30
0.0
 11
258.6230421388683
 21
82.49130723819449
 31
0.0
  0
LINE
  5
8C6
330
37
100
AcDbEntity
  8
Mittellinie(TC_020513_DIN)
  6
CHAIN
 48
10.55637073516845
100
AcDbLine
 10
226.1230421388683
 20
72.99130723819449
 30
0.0
 11
226.1230421388683
 21
82.49130723819449
 31
0.0
  0
LINE
  5
8C7
330
37
100
AcDbEntity
  8
Mittelpunktmarkierung(TC_020513_DIN)
  6
CHAIN
 48
23.99096870422363
100
AcDbLine
 10
248.8730421388698
 20
92.99130723819448
 30
0.0
 11
235.8730421388698
 21
92.99130723819448
 31
0.0
  0
LINE
  5
8C8
330
37
100
AcDbEntity
  8
Mittelpunktmarkierung(TC_020513_DIN)
  6
CHAIN
 48
23.99096870422363
100
AcDbLine
 10
242.3730421388698
 20
104.1710317563277
 30
0.0
 11
242.3730421388698
 21
72.97975652062612
 31
0.0
  0
DIMENSION
  5
8C9
330
37
100
AcDbEntity
  8
Bemaßungen(TC_020513_DIN)
  6
Continuous
 62
     7
370
    25
100
AcDbDimension
  2
*D17
 10
219.623042138868
 20
63.9913072381945
 30
0.0
 11
242.3730421388679
 21
63.9913072381945
 31
0.0
 70
   160
  1
<>
 42
45.49999999999999
  3
STANDARD-TC_020513_DIN
100
AcDbAlignedDimension
 13
265.1230421388679
 23
75.74130723819449
 33
0.0
 14
219.623042138868
 24
75.74130723819449
 34
0.0
 50
180.0
100
AcDbRotatedDimension
1001
ACAD
1000
DSTYLE
1002
{
1070
   271
1070
     2
1070
   272
1070
     2
1070
    48
1040
0.0
1070
    47
1040
0.0
1002
}
  0
DIMENSION
  5
98E
330
37
100
AcDbEntity
  8
Bemaßungen(TC_020513_DIN)
  6
Continuous
 62
     7
370
    25
100
AcDbDimension
  2
*D18
 10
274.2302091109564
 20
79.99130723819449
 30
0.0
 11
274.2302091109564
 21
76.99130723819454
 31
0.0
 70
   160
  1
<>
 42
6.0
  3
STANDARD-TC_020513_DIN
100
AcDbAlignedDimension
 13
260.1230421388664
 23
73.9913072381945
 33
0.0
 14
260.123042138867
 24
79.99130723819449
 34
0.0
 50
90.0
100
AcDbRotatedDimension
1001
ACAD
1000
DSTYLE
1002
{
1070
   271
1070
     2
1070
   272
1070
     2
1070
    48
1040
0.0
1070
    47
1040
0.0
1002
}
  0
DIMENSION
  5
A6D
330
37
100
AcDbEntity
  8
Bemaßungen(TC_020513_DIN)
  6
Continuous
 62
     7
370
    25
100
AcDbDimension
  2
*D19
 10
282.1230421388664
 20
73.9913072381945
 30
0.0
 11
282.1230421388664
 21
88.49130723819449
 31
0.0
 70
   160
  1
<>
 42
28.99999999999998
  3
STANDARD-TC_020513_DIN
100
AcDbAlignedDimension
 13
258.3730421388697
 23
102.9913072381944
 33
0.0
 14
260.1230421388664
 24
73.9913072381945
 34
0.0
 50
90.0
100
AcDbRotatedDimension
1001
ACAD
1000
DSTYLE
1002
{
1070
   271
1070
     2
1070
   272
1070
     2
1070
    48
1040
0.0
1070
    47
1040
0.0
1002
}
  0
DIMENSION
  5
B32
330
37
100
AcDbEntity
  8
Bemaßungen(TC_020513_DIN)
  6
Continuous
 62
     7
370
    25
100
AcDbDimension
  2
*D20
 10
194.6230421388704
 20
174.5567834595194
 30
0.0
 11
229.4980421388709
 21
174.5567834595194
 31
0.0
 70
   160
  1
<>
 42
69.75000000000111
  3
STANDARD-TC_020513_DIN
100
AcDbAlignedDimension
 13
264.3730421388715
 23
102.9913072381944
 33
0.0
 14
194.6230421388704
 24
153.9913072381945
 34
0.0
 50
180.0
100
AcDbRotatedDimension
1001
ACAD
1000
DSTYLE
1002
{
1070
   271
1070
     0
1070
   272
1070
     2
1070
    48
1040
0.0
1070
    47
1040
0.0
1002
}
  0
ENDSEC
  0
SECTION
  2
OBJECTS
  0
DICTIONARY
  5
C
330
0
100
AcDbDictionary
281
     1
  3
ACAD_COLOR
350
30
  3
ACAD_GROUP
350
D
  3
ACAD_LAYOUT
350
2F
  3
ACAD_MATERIAL
350
10
  3
ACAD_MLINESTYLE
350
2C
  3
ACAD_PLOTSETTINGS
350
2E
  3
ACAD_PLOTSTYLENAME
350
E
  3
ACAD_TABLESTYLE
350
31
  3
ACAD_VISUALSTYLE
350
14
  3
AcDbVariableDictionary
350
BF2
  3
DWGPROPS
350
BF8
  0
DICTIONARY
  5
C07
330
FA
100
AcDbDictionary
280
     1
281
     1
  3
ACAD_MTEXT_RT
360
C08
  0
DICTIONARY
  5
C09
330
10A
100
AcDbDictionary
280
     1
281
     1
  3
ACAD_MTEXT_RT
360
C0A
  0
DICTIONARY
  5
C0B
330
12B
100
AcDbDictionary
280
     1
281
     1
  3
ACAD_MTEXT_RT
360
C0C
  0
DICTIONARY
  5
30
102
{ACAD_REACTORS
330
C
102
}
330
C
100
AcDbDictionary
281
     1
  0
DICTIONARY
  5
D
102
{ACAD_REACTORS
330
C
102
}
330
C
100
AcDbDictionary
281
     1
  0
DICTIONARY
  5
2F
102
{ACAD_REACTORS
330
C
102
}
330
C
100
AcDbDictionary
281
     1
  3
Layout1
350
36
  3
Layout2
350
3E
  3
Model
350
3A
  0
DICTIONARY
  5
10
102
{ACAD_REACTORS
330
C
102
}
330
C
100
AcDbDictionary
281
     1
  3
ByBlock
350
12
  3
ByLayer
350
11
  3
Global
350
13
  0
DICTIONARY
  5
2C
102
{ACAD_REACTORS
330
C
102
}
330
C
100
AcDbDictionary
281
     1
  3
Standard
350
2D
  0
DICTIONARY
  5
2E
102
{ACAD_REACTORS
330
C
102
}
330
C
100
AcDbDictionary
281
     1
  0
ACDBDICTIONARYWDFLT
  5
E
102
{ACAD_REACTORS
330
C
102
}
330
C
100
AcDbDictionary
281
     1
  3
Normal
350
F
100
AcDbDictionaryWithDefault
340
F
  0
DICTIONARY
  5
31
102
{ACAD_REACTORS
330
C
102
}
330
C
100
AcDbDictionary
281
     1
  3
Standard
350
32
  0
DICTIONARY
  5
14
102
{ACAD_REACTORS
330
C
102
}
330
C
100
AcDbDictionary
281
     1
  3
2dWireframe
350
1A
  3
3D Hidden
350
1C
  3
3dWireframe
350
1B
  3
Basic
350
19
  3
Brighten
350
20
  3
ColorChange
350
24
  3
Conceptual
350
1D
  3
Dim
350
1F
  3
Facepattern
350
23
  3
Flat
350
15
  3
FlatWithEdges
350
16
  3
Gouraud
350
17
  3
GouraudWithEdges
350
18
  3
Linepattern
350
22
  3
Realistic
350
1E
  3
Thicken
350
21
  0
DICTIONARY
  5
BF2
102
{ACAD_REACTORS
330
C
102
}
330
C
100
AcDbDictionary
281
     1
  3
CTABLESTYLE
350
BF3
  3
DIMASSOC
350
BF7
  3
HIDETEXT
350
BF6
  3
INDEXCTL
350
BF5
  3
SORTENTS
350
BF4
  0
XRECORD
  5
BF8
102
{ACAD_REACTORS
330
C
102
}
330
C
100
AcDbXrecord
280
     1
  1
DWGPROPS COOKIE
  2

  3

  4
klein
  6

  7

  8

  9

300
Manager=
301
Firma=
302
Kategorie=
303
Bauteilnummer=CHI 06 LCS
304
Bezeichnung=
305
Projekt=
306
Konstrukteur=klein
307
Ingenieur=
308
Bevollmächtigter=
309
Kostenstelle=
 40
0.0000810300925926
 41
2454111.655891667
 42
2454111.655891667
  1

 90
       22
300
Zulieferer=
300
Benutzerstatus=
300
Konstruktionsstatus=InBearbeitung
300
Kontrolliert von=
300
Konstruktion genehmigt von=
300
Fertigung genehmigt von=
300
FirstViewScale:1=1:1
300
SaveDate=08/30/2006
300
SaveTime=14:09
300
PaperSize=A4
300
AllViewScales=1:1
300
FirstViewScale=1:1
  0
XRECORD
  5
C08
102
{ACAD_REACTORS
330
C07
102
}
330
C07
100
AcDbXrecord
280
     1
 40
45260.0
  1
Für spanlose Bearbeitung
  0
XRECORD
  5
C0A
102
{ACAD_REACTORS
330
C09
102
}
330
C09
100
AcDbXrecord
280
     1
 40
49954.0
  1
Alle nicht bemaßten Radien R
  0
XRECORD
  5
C0C
102
{ACAD_REACTORS
330
C0B
102
}
330
C0B
100
AcDbXrecord
280
     1
 40
53914.0
  1
Werkstückkanten\Pnach ISO 13715
  0
LAYOUT
  5
36
102
{ACAD_XDICTIONARY
360
C01
102
}
102
{ACAD_REACTORS
330
2F
102
}
330
2F
100
AcDbPlotSettings
  1

  2

  4

  6

 40
0.0
 41
0.0
 42
0.0
 43
0.0
 44
0.0
 45
0.0
 46
0.0
 47
0.0
 48
0.0
 49
0.0
140
0.0
141
0.0
142
1.0
143
1.0
 70
   688
 72
     0
 73
     0
 74
     5
  7

 75
    16
147
1.0
148
0.0
149
0.0
100
AcDbLayout
  1
Layout1
 70
     1
 71
     1
 10
0.0
 20
0.0
 11
12.0
 21
9.0
 12
0.0
 22
0.0
 32
0.0
 14
0.0
 24
0.0
 34
0.0
 15
0.0
 25
0.0
 35
0.0
146
0.0
 13
0.0
 23
0.0
 33
0.0
 16
1.0
 26
0.0
 36
0.0
 17
0.0
 27
1.0
 37
0.0
 76
     0
330
33
  0
LAYOUT
  5
3E
102
{ACAD_XDICTIONARY
360
C05
102
}
102
{ACAD_REACTORS
330
2F
102
}
330
2F
100
AcDbPlotSettings
  1

  2

  4

  6

 40
0.0
 41
0.0
 42
0.0
 43
0.0
 44
0.0
 45
0.0
 46
0.0
 47
0.0
 48
0.0
 49
0.0
140
0.0
141
0.0
142
1.0
143
1.0
 70
   688
 72
     0
 73
     0
 74
     5
  7

 75
    16
147
1.0
148
0.0
149
0.0
100
AcDbLayout
  1
Layout2
 70
     1
 71
     2
 10
0.0
 20
0.0
 11
12.0
 21
9.0
 12
0.0
 22
0.0
 32
0.0
 14
0.0
 24
0.0
 34
0.0
 15
0.0
 25
0.0
 35
0.0
146
0.0
 13
0.0
 23
0.0
 33
0.0
 16
1.0
 26
0.0
 36
0.0
 17
0.0
 27
1.0
 37
0.0
 76
     0
330
3B
  0
LAYOUT
  5
3A
102
{ACAD_XDICTIONARY
360
C03
102
}
102
{ACAD_REACTORS
330
2F
102
}
330
2F
100
AcDbPlotSettings
  1

  2

  4

  6

 40
0.0
 41
0.0
 42
0.0
 43
0.0
 44
0.0
 45
0.0
 46
0.0
 47
0.0
 48
0.0
 49
0.0
140
0.0
141
0.0
142
1.0
143
1.0
 70
  1712
 72
     0
 73
     0
 74
     0
  7

 75
     0
147
1.0
148
0.0
149
0.0
100
AcDbLayout
  1
Model
 70
     1
 71
     0
 10
0.0
 20
0.0
 11
12.0
 21
9.0
 12
0.0
 22
0.0
 32
0.0
 14
0.0
 24
0.0
 34
0.0
 15
0.0
 25
0.0
 35
0.0
146
0.0
 13
0.0
 23
0.0
 33
0.0
 16
1.0
 26
0.0
 36
0.0
 17
0.0
 27
1.0
 37
0.0
 76
     0
330
37
  0
MATERIAL
  5
12
102
{ACAD_XDICTIONARY
360
BFB
102
}
102
{ACAD_REACTORS
330
10
102
}
330
10
100
AcDbMaterial
  1
ByBlock
  0
MATERIAL
  5
11
102
{ACAD_XDICTIONARY
360
BF9
102
}
102
{ACAD_REACTORS
330
10
102
}
330
10
100
AcDbMaterial
  1
ByLayer
  0
MATERIAL
  5
13
102
{ACAD_XDICTIONARY
360
BFD
102
}
102
{ACAD_REACTORS
330
10
102
}
330
10
100
AcDbMaterial
  1
Global
  0
MLINESTYLE
  5
2D
102
{ACAD_REACTORS
330
2C
102
}
330
2C
100
AcDbMlineStyle
  2
STANDARD
 70
     0
  3

 62
   256
 51
90.0
 52
90.0
 71
     2
 49
0.5
 62
   256
  6
BYLAYER
 49
-0.5
 62
   256
  6
BYLAYER
  0
ACDBPLACEHOLDER
  5
F
102
{ACAD_REACTORS
330
E
102
}
330
E
  0
TABLESTYLE
  5
32
102
{ACAD_XDICTIONARY
360
BFF
102
}
102
{ACAD_REACTORS
330
31
102
}
330
31
100
AcDbTableStyle
  3
Standard
 70
     0
 71
     0
 40
0.06
 41
0.06
280
     0
281
     0
  7
Standard
140
0.18
170
     2
 62
     0
 63
     7
283
     0
274
    -2
284
     1
 64
     0
275
    -2
285
     1
 65
     0
276
    -2
286
     1
 66
     0
277
    -2
287
     1
 67
     0
278
    -2
288
     1
 68
     0
279
    -2
289
     1
 69
     0
  7
Standard
140
0.25
170
     5
 62
     0
 63
     7
283
     0
274
    -2
284
     1
 64
     0
275
    -2
285
     1
 65
     0
276
    -2
286
     1
 66
     0
277
    -2
287
     1
 67
     0
278
    -2
288
     1
 68
     0
279
    -2
289
     1
 69
     0
  7
Standard
140
0.18
170
     5
 62
     0
 63
     7
283
     0
274
    -2
284
     1
 64
     0
275
    -2
285
     1
 65
     0
276
    -2
286
     1
 66
     0
277
    -2
287
     1
 67
     0
278
    -2
288
     1
 68
     0
279
    -2
289
     1
 69
     0
  0
VISUALSTYLE
  5
1A
102
{ACAD_REACTORS
330
14
102
}
330
14
100
AcDbVisualStyle
  2
2dWireframe
 70
     4
 71
     0
 72
     2
 73
     0
 90
        0
 40
-0.6
 41
-30.0
 62
     5
 63
     7
 74
     1
 91
        4
 64
     7
 65
   257
 75
     1
175
     1
 42
1.0
 92
        0
 66
   257
 43
1.0
 76
     1
 77
     6
 78
     2
 67
     7
 79
     5
170
     0
171
     0
290
     0
174
     0
 93
        1
 44
0.0
173
     0
291
     0
 45
0.0
1001
ACAD
1000
AcDbSavedByObjectVersion
1070
     0
  0
VISUALSTYLE
  5
1C
102
{ACAD_REACTORS
330
14
102
}
330
14
100
AcDbVisualStyle
  2
3D Hidden
 70
     6
 71
     1
 72
     2
 73
     2
 90
        0
 40
-0.6
 41
-30.0
 62
     5
 63
     7
 74
     2
 91
        2
 64
     7
 65
   257
 75
     2
175
     1
 42
40.0
 92
        0
 66
   257
 43
1.0
 76
     1
 77
     6
 78
     2
 67
     7
 79
     3
170
     0
171
     0
290
     0
174
     0
 93
        1
 44
0.0
173
     0
291
     0
 45
0.0
1001
ACAD
1000
AcDbSavedByObjectVersion
1070
     0
  0
VISUALSTYLE
  5
1B
102
{ACAD_REACTORS
330
14
102
}
330
14
100
AcDbVisualStyle
  2
3dWireframe
 70
     5
 71
     0
 72
     2
 73
     0
 90
        0
 40
-0.6
 41
-30.0
 62
     5
 63
     7
 74
     1
 91
        4
 64
     7
 65
   257
 75
     1
175
     1
 42
1.0
 92
        0
 66
   257
 43
1.0
 76
     1
 77
     6
 78
     2
 67
     7
 79
     5
170
     0
171
     0
290
     0
174
     0
 93
        1
 44
0.0
173
     0
291
     0
 45
0.0
1001
ACAD
1000
AcDbSavedByObjectVersion
1070
     0
  0
VISUALSTYLE
  5
19
102
{ACAD_REACTORS
330
14
102
}
330
14
100
AcDbVisualStyle
  2
Basic
 70
     7
 71
     1
 72
     0
 73
     1
 90
        0
 40
-0.6
 41
-30.0
 62
     5
 63
     7
 74
     0
 91
        4
 64
     7
 65
   257
 75
     1
175
     1
 42
1.0
 92
        8
 66
     7
 43
1.0
 76
     1
 77
     6
 78
     2
 67
     7
 79
     5
170
     0
171
     0
290
     0
174
     0
 93
        1
 44
0.0
173
     0
291
     1
 45
0.0
1001
ACAD
1000
AcDbSavedByObjectVersion
1070
     0
  0
VISUALSTYLE
  5
20
102
{ACAD_REACTORS
330
14
102
}
330
14
100
AcDbVisualStyle
  2
Brighten
 70
    12
 71
     2
 72
     2
 73
     0
 90
        0
 40
-0.6
 41
-30.0
 62
     5
 63
     7
 74
     1
 91
        4
 64
     7
 65
   257
 75
     1
175
     1
 42
1.0
 92
        8
 66
     7
 43
1.0
 76
     1
 77
     6
 78
     2
 67
     7
 79
     5
170
     0
171
     0
290
     0
174
     0
 93
        1
 44
50.0
173
     0
291
     1
 45
0.0
1001
ACAD
1000
AcDbSavedByObjectVersion
1070
     0
  0
VISUALSTYLE
  5
24
102
{ACAD_REACTORS
330
14
102
}
330
14
100
AcDbVisualStyle
  2
ColorChange
 70
    16
 71
     2
 72
     2
 73
     3
 90
        0
 40
-0.6
 41
-30.0
 62
     5
 63
     8
 74
     1
 91
        4
 64
     7
 65
   257
 75
     1
175
     1
 42
1.0
 92
        8
 66
     8
 43
1.0
 76
     1
 77
     6
 78
     2
 67
     7
 79
     5
170
     0
171
     0
290
     0
174
     0
 93
        1
 44
0.0
173
     0
291
     1
 45
0.0
1001
ACAD
1000
AcDbSavedByObjectVersion
1070
     0
  0
VISUALSTYLE
  5
1D
102
{ACAD_REACTORS
330
14
102
}
330
14
100
AcDbVisualStyle
  2
Conceptual
 70
     9
 71
     3
 72
     2
 73
     0
 90
        0
 40
-0.6
 41
-30.0
 62
     5
 63
     7
 74
     2
 91
        2
 64
     7
 65
   257
 75
     1
175
     1
 42
40.0
 92
        8
 66
     7
 43
1.0
 76
     1
 77
     6
 78
     2
 67
     7
 79
     3
170
     0
171
     0
290
     0
174
     0
 93
        1
 44
0.0
173
     0
291
     0
 45
0.0
1001
ACAD
1000
AcDbSavedByObjectVersion
1070
     0
  0
VISUALSTYLE
  5
1F
102
{ACAD_REACTORS
330
14
102
}
330
14
100
AcDbVisualStyle
  2
Dim
 70
    11
 71
     2
 72
     2
 73
     0
 90
        0
 40
-0.6
 41
-30.0
 62
     5
 63
     7
 74
     1
 91
        4
 64
     7
 65
   257
 75
     1
175
     1
 42
1.0
 92
        8
 66
     7
 43
1.0
 76
     1
 77
     6
 78
     2
 67
     7
 79
     5
170
     0
171
     0
290
     0
174
     0
 93
        1
 44
-50.0
173
     0
291
     1
 45
0.0
1001
ACAD
1000
AcDbSavedByObjectVersion
1070
     0
  0
VISUALSTYLE
  5
23
102
{ACAD_REACTORS
330
14
102
}
330
14
100
AcDbVisualStyle
  2
Facepattern
 70
    15
 71
     2
 72
     2
 73
     0
 90
        0
 40
-0.6
 41
-30.0
 62
     5
 63
     7
 74
     1
 91
        4
 64
     7
 65
   257
 75
     1
175
     1
 42
1.0
 92
        8
 66
     7
 43
1.0
 76
     1
 77
     6
 78
     2
 67
     7
 79
     5
170
     0
171
     0
290
     0
174
     0
 93
        1
 44
0.0
173
     0
291
     1
 45
0.0
1001
ACAD
1000
AcDbSavedByObjectVersion
1070
     0
  0
VISUALSTYLE
  5
15
102
{ACAD_REACTORS
330
14
102
}
330
14
100
AcDbVisualStyle
  2
Flat
 70
     0
 71
     2
 72
     1
 73
     1
 90
        2
 40
-0.6
 41
30.0
 62
     5
 63
     7
 74
     0
 91
        4
 64
     7
 65
   257
 75
     1
175
     1
 42
1.0
 92
        8
 66
     7
 43
1.0
 76
     1
 77
     6
 78
     2
 67
     7
 79
     5
170
     0
171
     0
290
     0
174
     0
 93
       13
 44
0.0
173
     0
291
     1
 45
0.0
1001
ACAD
1000
AcDbSavedByObjectVersion
1070
     0
  0
VISUALSTYLE
  5
16
102
{ACAD_REACTORS
330
14
102
}
330
14
100
AcDbVisualStyle
  2
FlatWithEdges
 70
     1
 71
     2
 72
     1
 73
     1
 90
        2
 40
-0.6
 41
30.0
 62
     5
 63
     7
 74
     1
 91
        4
 64
     7
 65
   257
 75
     1
175
     1
 42
1.0
 92
        0
 66
   257
 43
1.0
 76
     1
 77
     6
 78
     2
 67
     7
 79
     5
170
     0
171
     0
290
     0
174
     0
 93
       13
 44
0.0
173
     0
291
     1
 45
0.0
1001
ACAD
1000
AcDbSavedByObjectVersion
1070
     0
  0
VISUALSTYLE
  5
17
102
{ACAD_REACTORS
330
14
102
}
330
14
100
AcDbVisualStyle
  2
Gouraud
 70
     2
 71
     2
 72
     2
 73
     1
 90
        2
 40
-0.6
 41
30.0
 62
     5
 63
     7
 74
     0
 91
        4
 64
     7
 65
   257
 75
     1
175
     1
 42
1.0
 92
        0
 66
     7
 43
1.0
 76
     1
 77
     6
 78
     2
 67
     7
 79
     5
170
     0
171
     0
290
     0
174
     0
 93
       13
 44
0.0
173
     0
291
     1
 45
0.0
1001
ACAD
1000
AcDbSavedByObjectVersion
1070
     0
  0
VISUALSTYLE
  5
18
102
{ACAD_REACTORS
330
14
102
}
330
14
100
AcDbVisualStyle
  2
GouraudWithEdges
 70
     3
 71
     2
 72
     2
 73
     1
 90
        2
 40
-0.6
 41
30.0
 62
     5
 63
     7
 74
     1
 91
        4
 64
     7
 65
   257
 75
     1
175
     1
 42
1.0
 92
        0
 66
   257
 43
1.0
 76
     1
 77
     6
 78
     2
 67
     7
 79
     5
170
     0
171
     0
290
     0
174
     0
 93
       13
 44
0.0
173
     0
291
     1
 45
0.0
1001
ACAD
1000
AcDbSavedByObjectVersion
1070
     0
  0
VISUALSTYLE
  5
22
102
{ACAD_REACTORS
330
14
102
}
330
14
100
AcDbVisualStyle
  2
Linepattern
 70
    14
 71
     2
 72
     2
 73
     0
 90
        0
 40
-0.6
 41
-30.0
 62
     5
 63
     7
 74
     1
 91
        4
 64
     7
 65
   257
 75
     7
175
     7
 42
1.0
 92
        8
 66
     7
 43
1.0
 76
     1
 77
     6
 78
     2
 67
     7
 79
     5
170
     0
171
     0
290
     0
174
     0
 93
        1
 44
0.0
173
     0
291
     1
 45
0.0
1001
ACAD
1000
AcDbSavedByObjectVersion
1070
     0
  0
VISUALSTYLE
  5
1E
102
{ACAD_REACTORS
330
14
102
}
330
14
100
AcDbVisualStyle
  2
Realistic
 70
     8
 71
     2
 72
     2
 73
     0
 90
        0
 40
-0.6
 41
-30.0
 62
     5
 63
     7
 74
     1
 91
        0
 64
     7
 65
   257
 75
     1
175
     1
 42
1.0
 92
        8
 66
     8
 43
1.0
 76
     1
 77
     6
 78
     2
 67
     7
 79
     5
170
     0
171
     0
290
     0
174
     0
 93
       13
 44
0.0
173
     0
291
     0
 45
0.0
1001
ACAD
1000
AcDbSavedByObjectVersion
1070
     0
  0
VISUALSTYLE
  5
21
102
{ACAD_REACTORS
330
14
102
}
330
14
100
AcDbVisualStyle
  2
Thicken
 70
    13
 71
     2
 72
     2
 73
     0
 90
        0
 40
-0.6
 41
-30.0
 62
     5
 63
     7
 74
     1
 91
        4
 64
     7
 65
   257
 75
     1
175
     1
 42
1.0
 92
       12
 66
     7
 43
1.0
 76
     1
 77
     6
 78
     2
 67
     7
 79
     5
170
     0
171
     0
290
     0
174
     0
 93
        1
 44
0.0
173
     0
291
     1
 45
0.0
1001
ACAD
1000
AcDbSavedByObjectVersion
1070
     0
  0
DICTIONARYVAR
  5
BF3
102
{ACAD_REACTORS
330
BF2
102
}
330
BF2
100
DictionaryVariables
280
     0
  1
STANDARD
  0
DICTIONARYVAR
  5
BF7
102
{ACAD_REACTORS
330
BF2
102
}
330
BF2
100
DictionaryVariables
280
     0
  1
1
  0
DICTIONARYVAR
  5
BF6
102
{ACAD_REACTORS
330
BF2
102
}
330
BF2
100
DictionaryVariables
280
     0
  1
1
  0
DICTIONARYVAR
  5
BF5
102
{ACAD_REACTORS
330
BF2
102
}
330
BF2
100
DictionaryVariables
280
     0
  1
0
  0
DICTIONARYVAR
  5
BF4
102
{ACAD_REACTORS
330
BF2
102
}
330
BF2
100
DictionaryVariables
280
     0
  1
127
  0
DICTIONARY
  5
C01
330
36
100
AcDbDictionary
280
     1
281
     1
  3
ACAD_XREC_ROUNDTRIP
360
C02
  0
DICTIONARY
  5
C05
330
3E
100
AcDbDictionary
280
     1
281
     1
  3
ACAD_XREC_ROUNDTRIP
360
C06
  0
DICTIONARY
  5
C03
330
3A
100
AcDbDictionary
280
     1
281
     1
  3
ACAD_XREC_ROUNDTRIP
360
C04
  0
DICTIONARY
  5
BFB
330
12
100
AcDbDictionary
280
     1
281
     1
  3
ACAD_XREC_ROUNDTRIP
360
BFC
  0
DICTIONARY
  5
BF9
330
11
100
AcDbDictionary
280
     1
281
     1
  3
ACAD_XREC_ROUNDTRIP
360
BFA
  0
DICTIONARY
  5
BFD
330
13
100
AcDbDictionary
280
     1
281
     1
  3
ACAD_XREC_ROUNDTRIP
360
BFE
  0
DICTIONARY
  5
BFF
330
32
100
AcDbDictionary
280
     1
281
     1
  3
ACAD_XREC_ROUNDTRIP
360
C00
  0
XRECORD
  5
C02
102
{ACAD_REACTORS
330
C01
102
}
330
C01
100
AcDbXrecord
280
     1
102
SHADEPLOT
 70
     0
102
SHADEPLOTRESLEVEL
 70
     2
102
SHADEPLOTCUSTOMDPI
 70
   300
  0
XRECORD
  5
C06
102
{ACAD_REACTORS
330
C05
102
}
330
C05
100
AcDbXrecord
280
     1
102
SHADEPLOT
 70
     0
102
SHADEPLOTRESLEVEL
 70
     2
102
SHADEPLOTCUSTOMDPI
 70
   300
  0
XRECORD
  5
C04
102
{ACAD_REACTORS
330
C03
102
}
330
C03
100
AcDbXrecord
280
     1
102
SHADEPLOT
 70
     0
102
SHADEPLOTRESLEVEL
 70
     2
102
SHADEPLOTCUSTOMDPI
 70
   300
  0
XRECORD
  5
BFC
102
{ACAD_REACTORS
330
BFB
102
}
330
BFB
100
AcDbXrecord
280
     1
102
MATERIAL
148
0.0
149
0.0
149
0.0
 93
        0
 94
       63
282
     0
 72
     1
 77
     1
171
     1
175
     1
179
     1
273
     0
  0
XRECORD
  5
BFA
102
{ACAD_REACTORS
330
BF9
102
}
330
BF9
100
AcDbXrecord
280
     1
102
MATERIAL
148
0.0
149
0.0
149
0.0
 93
        0
 94
       63
282
     0
 72
     1
 77
     1
171
     1
175
     1
179
     1
273
     0
  0
XRECORD
  5
BFE
102
{ACAD_REACTORS
330
BFD
102
}
330
BFD
100
AcDbXrecord
280
     1
102
MATERIAL
148
0.0
149
0.0
149
0.0
 93
        0
 94
       63
282
     0
 72
     1
 77
     1
171
     1
175
     1
179
     1
273
     0
  0
XRECORD
  5
C00
102
{ACAD_REACTORS
330
BFF
102
}
330
BFF
100
AcDbXrecord
280
     1
102
ACAD_ROUNDTRIP_PRE2007_TABLESTYLE
 90
      512
 91
        0
  1

 92
      512
 93
        0
  2

 94
      512
 95
        0
  3

  0
ENDSEC
  0
EOF
